<?xml version="1.0" standalone="no"?>
<!DOCTYPE svg PUBLIC "-//W3C//DTD SVG 1.1//EN" "http://www.w3.org/Graphics/SVG/1.1/DTD/svg11.dtd" >
<svg xmlns="http://www.w3.org/2000/svg">
<metadata></metadata>
<defs>
<font id="digital_icgregular" horiz-adv-x="1146" >
<font-face units-per-em="2048" ascent="1638" descent="-410" />
<missing-glyph horiz-adv-x="411" />
<glyph horiz-adv-x="2048" />
<glyph horiz-adv-x="2048" />
<glyph unicode="&#xd;" horiz-adv-x="2048" />
<glyph unicode=" "  horiz-adv-x="411" />
<glyph unicode="&#x09;" horiz-adv-x="411" />
<glyph unicode="&#xa0;" horiz-adv-x="411" />
<glyph unicode="!" horiz-adv-x="462" d="M147 76l78 84l88 -78l-88 -82zM147 315v381l78 78l88 -82v-370l-88 -82zM147 930v620l78 76l88 -82v-612l-88 -80z" />
<glyph unicode="&#x22;" horiz-adv-x="634" d="M100 1200v352l80 78l88 -82v-346l-88 -80zM365 1200v352l79 78l88 -82v-346l-88 -80z" />
<glyph unicode="#" horiz-adv-x="1472" d="M100 506l97 86h196l66 -86l-94 -82h-203zM174 926l96 86h197l65 -86l-94 -80h-200zM338 76l57 321l92 76l74 -80l-55 -311l-100 -82zM436 631l35 194l94 76l72 -80l-33 -188l-100 -80zM506 1034l65 363l95 76l71 -80l-61 -357l-101 -80zM526 506l95 86h182l65 -86 l-94 -82h-186zM600 926l94 86h183l65 -86l-94 -80h-184zM741 76l58 321l94 76l72 -80l-56 -311l-100 -82zM838 631l34 194l95 76l73 -80l-34 -188l-101 -80zM909 1034l64 363l94 76l74 -80l-64 -357l-100 -80zM936 506l94 86h207l68 -86l-95 -82h-206zM1010 926l96 86h207 l63 -86l-94 -80h-209z" />
<glyph unicode="$" horiz-adv-x="1144" d="M100 86l78 82h676l78 -82l-80 -86h-672zM100 930v495l82 76l86 -82v-487l-86 -80zM213 809l80 88h559l80 -86l-78 -82h-565zM213 1542l80 88h608l80 -86l-80 -82h-612zM481 -51h168v-127l-86 -80l-82 78v129zM481 1667v129l82 76l86 -80v-125h-168zM885 205v491l82 78 l86 -82v-483l-86 -80z" />
<glyph unicode="%" horiz-adv-x="1665" d="M100 1137v278l80 76l88 -80v-272l-88 -80zM211 1018l78 82h276l80 -82l-80 -86h-272zM211 1540l82 88h272l80 -86l-80 -82h-276zM326 121l403 684l117 24l31 -104l-410 -690l-107 -27zM600 1137v278l78 76l88 -80v-272l-88 -80zM850 1012l342 585l115 27l30 -108 l-344 -590l-108 -27zM907 205v278l80 76l88 -80v-270l-88 -80zM1018 86l76 82h276l80 -82l-80 -86h-270zM1018 608l82 88h270l80 -86l-80 -82h-276zM1405 205v278l80 76l88 -80v-270l-88 -80z" />
<glyph unicode="&#x26;" horiz-adv-x="1363" d="M100 205v491l80 78l88 -82v-483l-88 -80zM100 930v495l80 76l88 -82v-487l-88 -80zM211 86l78 82h563l80 -82l-80 -86h-559zM211 809l82 88h559l80 -86l-80 -82h-563zM211 1542l82 88h559l80 -86l-80 -82h-563zM885 205v491l80 78l88 -82v-483l-88 -80zM885 930v137 l80 76l88 -82v-129l-88 -80zM1004 809l79 88h103l80 -86l-80 -82h-105z" />
<glyph unicode="'" horiz-adv-x="366" d="M100 1200v352l80 78l88 -82v-346l-88 -80z" />
<glyph unicode="(" horiz-adv-x="630" d="M100 205v491l80 78l88 -82v-483l-88 -80zM100 930v495l80 76l88 -82v-487l-88 -80zM211 86l78 82h155l80 -82l-82 -86h-149zM211 1542l82 88h149l82 -86l-80 -82h-155z" />
<glyph unicode=")" horiz-adv-x="622" d="M100 86l80 82h156l78 -82l-82 -86h-152zM100 1544l80 86h152l82 -88l-78 -80h-156zM356 209v483l86 82l82 -78v-491l-82 -76zM356 932v487l86 82l82 -76v-495l-82 -78z" />
<glyph unicode="*" horiz-adv-x="679" d="M94 1516v110l125 2l92 -84v-127h-116zM96 1159v125l92 88h125v-115l-102 -98h-115zM360 1257v115h125l93 -88v-125h-115zM362 1417v127l95 84l125 -2v-110l-103 -99h-117z" />
<glyph unicode="+" horiz-adv-x="1081" d="M100 672l80 86h264l82 -86l-80 -80h-268zM457 309v254l80 76l86 -80v-246l-86 -80zM457 791v253l80 78l86 -82v-245l-86 -80zM555 672l82 86h264l80 -86l-80 -80h-268z" />
<glyph unicode="," horiz-adv-x="409" d="M94 43l111 170h106v-109l-106 -165h-111v104z" />
<glyph unicode="-" horiz-adv-x="925" d="M100 635l80 86l559 2l82 -88l-80 -80h-563z" />
<glyph unicode="." horiz-adv-x="432" d="M102 113l115 114l115 -112l-115 -117z" />
<glyph unicode="/" horiz-adv-x="1208" d="M100 121l406 684l117 24l30 -104l-409 -690l-109 -27zM625 1012l342 585l116 27l33 -108l-348 -590l-106 -27z" />
<glyph unicode="0" d="M100 205v491l80 78l88 -82v-483l-88 -80zM100 930v495l80 76l88 -82v-487l-88 -80zM211 86l78 82h563l80 -82l-80 -86h-559zM211 1542l82 88h559l80 -86l-80 -82h-563zM885 205v491l80 78l88 -82v-483l-88 -80zM885 930v495l80 76l88 -82v-487l-88 -80z" />
<glyph unicode="1" horiz-adv-x="593" d="M100 1544l80 84h277l-158 -166h-119zM322 76v620l79 78l86 -82v-612l-86 -82zM322 932v487l165 170v-659l-79 -78z" />
<glyph unicode="2" d="M100 43v653l80 78l88 -82v-483zM123 0l166 168h563l80 -82l-80 -86h-729zM207 1542l82 88h563l80 -86l-80 -82h-567zM211 809l82 88h559l80 -86l-80 -82h-563zM885 930v495l80 76l88 -82v-487l-88 -80z" />
<glyph unicode="3" horiz-adv-x="1036" d="M100 86l78 82h563l80 -82l-82 -86h-559zM100 809l80 88h559l82 -86l-80 -82h-563zM100 1542l80 88h559l82 -86l-80 -82h-563zM774 205v491l80 78l86 -82v-483l-86 -80zM774 930v495l80 76l86 -82v-487l-86 -80z" />
<glyph unicode="4" d="M100 930v620l80 76l88 -82v-612l-88 -80zM211 809l82 88h559l80 -86l-80 -82h-563zM885 76v620l80 78l88 -82v-612l-88 -82zM885 930v620l80 76l88 -82v-612l-88 -80z" />
<glyph unicode="5" d="M100 932v651l168 -166v-483l-88 -80zM123 1626h729l80 -86l-80 -82h-563zM207 84l78 80h567l80 -80l-80 -88h-563zM211 817l78 80h563l80 -80l-80 -86h-559zM885 203v495l80 76l88 -80v-487l-88 -82z" />
<glyph unicode="6" horiz-adv-x="1138" d="M100 205v491l80 78l88 -82v-483l-88 -80zM100 930v495l80 76l88 -82v-487l-88 -80zM211 86l78 82h563l80 -82l-80 -86h-559zM211 809l82 88h559l80 -86l-80 -82h-563zM211 1542l82 88h559l80 -86l-80 -82h-563zM885 205v491l80 78l88 -82v-483l-88 -80z" />
<glyph unicode="7" horiz-adv-x="1026" d="M100 1542l80 86h729l-166 -168h-563zM764 84v610l88 82l80 -78v-620l-80 -78zM764 936v483l168 164v-651l-80 -78z" />
<glyph unicode="8" horiz-adv-x="1138" d="M100 205v491l80 78l88 -82v-483l-88 -80zM100 930v495l80 76l88 -82v-487l-88 -80zM211 86l78 82h563l80 -82l-80 -86h-559zM211 809l82 88h559l80 -86l-80 -82h-563zM211 1542l80 86h559l82 -84l-80 -82h-563zM885 205v491l80 78l88 -82v-483l-88 -80zM885 930v495 l80 76l88 -82v-487l-88 -80z" />
<glyph unicode="9" d="M100 930v495l80 76l88 -82v-487l-88 -80zM211 86l78 82h563l80 -82l-80 -86h-559zM211 809l82 88h559l80 -86l-80 -82h-563zM211 1542l82 88h559l80 -86l-80 -82h-563zM885 205v491l80 78l88 -82v-483l-88 -80zM885 930v495l80 76l88 -82v-487l-88 -80z" />
<glyph unicode=":" horiz-adv-x="432" d="M104 115l113 112l115 -112l-115 -117zM104 885l113 114l115 -114l-115 -115z" />
<glyph unicode=";" horiz-adv-x="473" d="M100 43l111 170h106v-115l-106 -159h-111v104zM141 885l117 114l113 -114l-113 -115z" />
<glyph unicode="&#x3c;" horiz-adv-x="972" d="M100 512v113l117 -2l668 -320v-117h-111zM100 694v111l674 325h111v-116l-668 -320h-117z" />
<glyph unicode="=" horiz-adv-x="925" d="M100 465l80 86l559 2l82 -88l-80 -80h-563zM100 805l84 88h555l82 -88l-80 -80h-563z" />
<glyph unicode="&#x3e;" horiz-adv-x="978" d="M100 186v117l670 320l115 2v-113l-674 -326h-111zM100 1014v116h111l674 -325v-111h-115z" />
<glyph unicode="?" d="M100 76l80 84l88 -78l-88 -82zM100 317v379l80 78l88 -82v-370l-88 -80zM211 809l82 88h559l80 -86l-80 -82h-563zM211 1542l82 88h559l80 -86l-80 -82h-563zM885 930v495l80 76l88 -82v-487l-88 -80z" />
<glyph unicode="@" horiz-adv-x="1597" d="M57 741q1 152 60 290.5t158.5 239.5t237.5 160.5t290 59.5q135 0 262.5 -43.5t226.5 -120t159 -190t60 -244.5q0 -148 -66 -284t-180.5 -221t-244.5 -85q-38 0 -68 17.5t-45 42t-24.5 49t-12.5 42.5l-2 17l-61 -70q-78 -90 -197 -90q-120 -1 -198 96t-78 226q0 78 30 152 t79 128.5t109 96t122.5 63t116.5 21.5q127 0 159 -95l21 -57l41 127l176 4l-160 -590q-12 -35 -5 -79t38 -44q82 0 162 79t129 199.5t49 238.5q0 121 -51 219.5t-135.5 160t-190.5 94.5t-221 33q-172 0 -318.5 -85t-231.5 -231t-85 -318q0 -178 86.5 -331t236.5 -243 t328 -90q71 0 135.5 10t113 27t91 39.5t72.5 47t54 48.5t39.5 46.5t25.5 39.5t14 27l4 10h135q-3 -8 -10 -22.5t-34 -56t-60 -79t-91 -83.5t-124.5 -79.5t-163.5 -56t-205 -22.5q-154 0 -294.5 60.5t-242.5 162t-162 242t-59 294.5zM518 541q0 -70 34 -120t105 -50 q69 0 135 90t103 203.5t37 195.5q0 80 -31.5 130t-89.5 50q-66 0 -135.5 -81t-113.5 -198t-44 -220z" />
<glyph unicode="A" d="M98 76v620l80 78l88 -82v-612l-88 -82zM98 930v495l80 76l88 -82v-487l-88 -80zM211 809l78 88h559l82 -86l-80 -82h-563zM211 1542l78 86h559l82 -84l-80 -82h-563zM885 76v620l80 78l86 -82v-612l-86 -82zM885 930v495l80 76l86 -82v-487l-86 -80z" />
<glyph unicode="B" d="M100 43v653l80 78l88 -82v-483zM100 930v659l168 -170v-487l-88 -80zM123 0l166 168h563l80 -82l-80 -86h-729zM131 1630h721l80 -86l-80 -82h-563zM211 809l82 88h559l80 -86l-80 -82h-563zM885 205v491l80 78l88 -82v-483l-88 -80zM885 930v495l80 76l88 -82v-487 l-88 -80z" />
<glyph unicode="C" horiz-adv-x="1032" d="M100 205v491l80 78l88 -82v-483l-88 -80zM100 930v495l80 76l88 -82v-487l-88 -80zM211 86l78 82h563l80 -82l-80 -86h-559zM211 1542l82 88h559l80 -86l-80 -82h-563z" />
<glyph unicode="D" horiz-adv-x="1138" d="M100 43v653l80 78l88 -82v-483zM100 930v659l168 -170v-487l-88 -80zM123 0l166 168h563l80 -82l-80 -86h-729zM131 1630h721l80 -86l-80 -82h-563zM885 205v491l80 78l88 -82v-483l-88 -80zM885 930v495l80 76l88 -82v-487l-88 -80z" />
<glyph unicode="E" horiz-adv-x="1032" d="M100 43v653l80 78l88 -82v-483zM100 930v659l168 -170v-487l-88 -80zM123 0l166 168h563l80 -82l-80 -86h-729zM131 1630h721l80 -86l-80 -82h-563zM211 809l82 88h559l80 -86l-80 -82h-563z" />
<glyph unicode="F" horiz-adv-x="991" d="M100 76v620l80 78l88 -82v-612l-88 -82zM100 930v657l168 -170v-485l-88 -80zM131 1628h721l80 -86l-80 -82h-563zM211 809l82 88h559l80 -86l-80 -82h-563z" />
<glyph unicode="G" horiz-adv-x="1163" d="M100 205v491l80 78l88 -82v-483l-88 -80zM100 930v495l80 76l88 -82v-487l-88 -80zM211 86l78 82h563l80 -82l-80 -86h-559zM211 1542l82 88h567l80 -86l-78 -82h-573zM664 809l79 88h273l-164 -168h-111zM885 205v491l168 162v-649l-88 -80z" />
<glyph unicode="H" d="M100 76v620l80 78l88 -82v-612l-88 -82zM100 930v620l80 76l88 -82v-612l-88 -80zM211 809l82 84h559l80 -82l-80 -82h-563zM885 76v620l80 78l88 -82v-612l-88 -82zM885 930v620l80 76l88 -82v-612l-88 -80z" />
<glyph unicode="I" horiz-adv-x="458" d="M147 76v620l82 78l86 -82v-612l-86 -82zM147 930v620l82 76l86 -82v-612l-86 -80z" />
<glyph unicode="J" d="M104 205v491l80 78l88 -82v-483l-88 -80zM215 86l76 82h563l80 -82l-80 -86h-557zM889 205v491l80 78l88 -82v-483l-88 -80zM889 930v620l80 76l88 -82v-612l-88 -80z" />
<glyph unicode="K" d="M100 76v620l80 78l88 -82v-612l-88 -82zM100 930v620l80 76l88 -82v-612l-88 -80zM211 809l82 88h559l80 -86l-80 -82h-563zM319 938v117l574 573h119v-110l-582 -580h-111zM885 76v620l80 78l88 -82v-612l-88 -82z" />
<glyph unicode="L" horiz-adv-x="976" d="M100 43v653l80 78l88 -82v-483zM100 930v620l80 76l88 -82v-612l-88 -80zM123 0l166 168h563l80 -82l-80 -86h-729z" />
<glyph unicode="M" horiz-adv-x="1138" d="M100 76v620l80 78l88 -82v-612l-88 -82zM100 930v495l80 76l88 -82v-487l-88 -80zM211 1542l82 88h559l80 -86l-80 -82h-563zM489 1194v219l164 2v-223l-80 -76zM885 76v620l80 78l88 -82v-612l-88 -82zM885 930v495l80 76l88 -82v-487l-88 -80z" />
<glyph unicode="N" d="M100 76v620l80 78l88 -82v-612l-88 -82zM100 930v620l80 76l88 -82v-612l-88 -80zM317 1548l117 -2l404 -502v-116l-111 2l-408 506zM885 76v620l80 78l88 -82v-612l-88 -82zM885 930v620l80 76l88 -82v-612l-88 -80z" />
<glyph unicode="O" d="M100 205v491l80 78l88 -82v-483l-88 -80zM100 930v495l80 76l88 -82v-487l-88 -80zM211 86l78 82h563l80 -82l-80 -86h-559zM211 1542l82 88h559l80 -86l-80 -82h-563zM885 205v491l80 78l88 -82v-483l-88 -80zM885 930v495l80 76l88 -82v-487l-88 -80z" />
<glyph unicode="P" d="M100 76v620l80 78l88 -82v-612l-88 -82zM100 930v657l168 -170v-485l-88 -80zM131 1628h721l80 -86l-80 -82h-563zM211 809l82 88h559l80 -86l-80 -82h-563zM885 930v493l80 76l88 -82v-485l-88 -80z" />
<glyph unicode="Q" horiz-adv-x="1208" d="M100 205v491l80 78l88 -82v-483l-88 -80zM100 930v495l80 76l88 -82v-487l-88 -80zM211 86l78 82h405l80 -82l-80 -86h-401zM211 1542l82 86h559l80 -84l-80 -82h-563zM768 276l119 -2l229 -227v-119l-112 2l-232 234zM885 348v348l80 78l88 -82v-340l-88 -80zM885 930 v495l80 76l88 -82v-487l-88 -80z" />
<glyph unicode="R" d="M100 76v620l80 78l88 -82v-612l-88 -82zM100 930v659l168 -170v-487l-88 -80zM131 1628h721l80 -84l-80 -82h-563zM211 809l82 88h559l80 -86l-80 -82h-563zM319 563v121h111l574 -573l-3 -113h-118zM885 930v495l80 76l88 -82v-487l-88 -80z" />
<glyph unicode="S" horiz-adv-x="1144" d="M100 86l78 82h676l78 -82l-80 -86h-672zM100 930v495l82 76l86 -82v-487l-86 -80zM213 809l80 88h559l80 -86l-78 -82h-565zM213 1542l80 86h608l80 -84l-80 -82h-612zM885 205v491l82 78l86 -82v-483l-86 -80z" />
<glyph unicode="T" horiz-adv-x="798" d="M45 1542l80 86h559l82 -84l-80 -82h-563zM319 76v620l80 78l88 -82v-612l-88 -82zM319 930v487h168v-485l-88 -80z" />
<glyph unicode="U" d="M100 205v491l80 78l88 -82v-483l-88 -80zM100 930v622l80 76l88 -82v-614l-88 -80zM211 86l78 82h563l80 -82l-80 -86h-559zM885 205v491l80 78l88 -82v-483l-88 -80zM885 930v622l80 76l88 -82v-614l-88 -80z" />
<glyph unicode="V" d="M100 74v622l80 78l88 -82v-616l-88 -80zM100 930v622l80 76l88 -82v-614l-88 -80zM319 76v119l527 614h119l4 -113l-539 -620h-111zM885 930v622l80 76l88 -82v-614l-88 -80z" />
<glyph unicode="W" d="M100 203v493l80 78l88 -80v-487l-88 -82zM100 930v622l80 76l88 -82v-612l-88 -80zM211 84l78 80h563l80 -80l-80 -88h-559zM489 211v221l84 80l80 -78v-223h-164zM885 203v493l80 78l88 -80v-487l-88 -82zM885 930v622l80 76l88 -82v-612l-88 -80z" />
<glyph unicode="X" horiz-adv-x="1142" d="M100 -2l2 111l328 673h111v-114l-322 -670h-119zM100 1628h119l322 -670v-112l-111 -2l-328 674zM608 782h113l326 -673v-111h-115l-322 670zM608 846l2 112l322 670h115v-110l-326 -674z" />
<glyph unicode="Y" d="M100 930v620l80 76l88 -82v-612l-88 -80zM104 86l76 82h672l80 -82l-80 -86h-666zM211 809l82 88h559l80 -86l-80 -82h-563zM885 205v491l80 78l88 -82v-483l-88 -80zM885 930v620l80 76l88 -82v-612l-88 -80z" />
<glyph unicode="Z" horiz-adv-x="1038" d="M100 86l78 82h676l78 -82l-80 -86h-672zM100 1542l80 86h672l80 -84l-78 -82h-676zM193 217v141l204 414l113 35l41 -105l-236 -485h-122zM494 956l243 461h113l2 -143l-205 -383l-112 -37z" />
<glyph unicode="[" horiz-adv-x="636" d="M100 43v653l80 78l88 -82v-483zM100 930v659l168 -170v-487l-88 -80zM123 0l166 168h160l79 -82l-79 -86h-326zM131 1630h318l79 -86l-79 -82h-160z" />
<glyph unicode="\" horiz-adv-x="1210" d="M100 1516l31 108l117 -27l342 -585l-35 -113l-109 27zM563 725l31 104l117 -24l405 -684l-37 -113l-106 27z" />
<glyph unicode="]" horiz-adv-x="628" d="M100 86l80 82h160l166 -168h-326zM100 1544l80 84h318l-158 -166h-160zM360 209v483l89 82l79 -78v-653zM360 932v487l168 170v-659l-79 -78z" />
<glyph unicode="^" horiz-adv-x="782" d="M100 1366v121l146 141h121v-117l-150 -145h-117zM418 1511v117h121l145 -141v-121h-117z" />
<glyph unicode="_" horiz-adv-x="1417" d="M-10 -289h1480v-71h-1480v71z" />
<glyph unicode="`" horiz-adv-x="681" d="M100 1593l115 35l344 -198l25 -117l-107 -31l-346 201z" />
<glyph unicode="a" horiz-adv-x="995" d="M100 76v407l80 76l88 -80v-397l-88 -82zM100 717v311l80 78l88 -82v-305l-88 -80zM211 598l82 86l397 -2l80 -84l-80 -82h-401zM211 1147l82 88h397l80 -88l-80 -80h-401zM725 76v407l80 76l88 -80v-397l-88 -82zM725 717v311l80 78l88 -82v-305l-88 -80z" />
<glyph unicode="b" horiz-adv-x="995" d="M100 43v440l80 76l88 -80v-270zM100 717v465l168 -158v-305l-88 -80zM123 1235h567l80 -88l-80 -80h-401zM131 0l158 168h401l80 -82l-80 -86h-559zM211 598l82 86h397l80 -86l-80 -82h-401zM725 205v278l80 76l88 -80v-270l-88 -80zM725 717v311l80 78l88 -82v-305 l-88 -80z" />
<glyph unicode="c" horiz-adv-x="868" d="M100 205v829l80 76l88 -82v-819l-88 -80zM211 86l78 82h401l80 -82l-80 -86h-397zM211 1147l82 88h397l80 -88l-80 -80h-401z" />
<glyph unicode="d" horiz-adv-x="995" d="M100 43v440l80 76l88 -80v-270zM100 717v465l168 -158v-305l-88 -80zM123 1235h567l80 -88l-80 -80h-401zM131 0l158 168h401l80 -82l-80 -86h-559zM725 205v278l80 76l88 -80v-270l-88 -80zM725 717v311l80 78l88 -82v-305l-88 -80z" />
<glyph unicode="e" horiz-adv-x="864" d="M100 205v278l80 76l88 -80v-270l-88 -80zM100 717v311l80 78l88 -82v-305l-88 -80zM211 86l78 82h401l80 -82l-80 -86h-397zM211 598l82 86h397l80 -86l-80 -82h-401zM211 1147l82 88h397l80 -88l-80 -80h-401z" />
<glyph unicode="f" horiz-adv-x="819" d="M100 74v409l80 76l88 -80v-403l-88 -80zM100 717v311l80 78l88 -82v-305l-88 -80zM211 598l82 86h397l80 -86l-80 -82h-401zM211 1147l82 88h397l80 -88l-80 -80h-401z" />
<glyph unicode="g" horiz-adv-x="995" d="M100 205v278l80 76l88 -80v-270l-88 -80zM100 717v311l80 78l88 -82v-305l-88 -80zM211 86l78 82h401l80 -82l-80 -86h-397zM211 1147l82 88l397 -2l80 -86l-80 -80h-401zM498 598l80 86h280l-168 -168h-115zM725 205v278l168 164v-438l-88 -80z" />
<glyph unicode="h" horiz-adv-x="995" d="M100 74v409l80 76l88 -80v-403l-88 -80zM100 717v444l80 76l88 -82v-436l-88 -80zM211 598l82 86h397l80 -86l-80 -82h-401zM725 74v409l80 76l88 -80v-403l-88 -80zM725 717v444l80 76l88 -82v-436l-88 -80z" />
<glyph unicode="i" horiz-adv-x="458" d="M147 68v411l82 76l86 -80v-403l-86 -82zM147 711v444l82 78l86 -82v-436l-86 -80z" />
<glyph unicode="j" horiz-adv-x="995" d="M100 205v278l80 76l88 -80v-270l-88 -80zM211 86l78 82h401l80 -82l-80 -86h-397zM725 205v278l80 76l88 -80v-270l-88 -80zM725 717v436l80 76l88 -80v-430l-88 -80z" />
<glyph unicode="k" horiz-adv-x="989" d="M100 74v409l80 76l88 -80v-403l-88 -80zM100 717v444l80 76l88 -82v-436l-88 -80zM211 598l82 86h397l80 -86l-80 -82h-401zM313 735v123l435 377h126v-111l-444 -387zM725 74v409l80 76l88 -80v-403l-88 -80z" />
<glyph unicode="l" horiz-adv-x="815" d="M100 43v440l80 76l88 -80v-270zM100 717v444l80 76l88 -82v-436l-88 -80zM131 0l158 168h401l80 -82l-80 -86h-559z" />
<glyph unicode="m" horiz-adv-x="989" d="M100 76v407l80 76l88 -80v-399l-88 -82zM100 717v311l80 78l88 -82v-305l-88 -80zM211 1147l82 88h397l80 -88l-80 -80h-401zM418 846v176h168v-176l-88 -80zM725 76v407l80 76l88 -80v-399l-88 -82zM725 717v311l80 78l88 -82v-305l-88 -80z" />
<glyph unicode="n" horiz-adv-x="995" d="M100 74v409l80 76l88 -80v-403l-88 -80zM100 717v444l80 76l88 -82v-436l-88 -80zM305 1040v115h121l268 -317v-121h-114zM725 74v409l80 76l88 -80v-403l-88 -80zM725 717v444l80 76l88 -82v-436l-88 -80z" />
<glyph unicode="o" horiz-adv-x="995" d="M100 205v278l80 76l88 -80v-270l-88 -80zM100 717v311l80 78l88 -82v-305l-88 -80zM211 86l78 82h401l80 -82l-80 -86h-397zM211 1147l82 88h397l80 -88l-80 -80h-401zM725 205v278l80 76l88 -80v-270l-88 -80zM725 717v311l80 78l88 -82v-305l-88 -80z" />
<glyph unicode="p" horiz-adv-x="989" d="M100 76v407l80 76l88 -80v-399l-88 -82zM100 717v469l168 -162v-305l-88 -80zM131 1235h559l80 -88l-80 -80h-401zM211 598l82 86h397l80 -86l-80 -82h-401zM725 717v311l80 78l88 -82v-305l-88 -80z" />
<glyph unicode="q" horiz-adv-x="989" d="M100 205v278l80 76l88 -80v-270l-88 -80zM100 717v311l80 78l88 -82v-305l-88 -80zM211 86l78 82h250l79 -82l-83 -86h-242zM211 1147l82 88h397l80 -88l-80 -80h-401zM584 170v111h116l164 -166l2 -119l-112 2zM725 299v184l80 76l88 -80v-176l-88 -80zM725 717v311 l80 78l88 -82v-305l-88 -80z" />
<glyph unicode="r" horiz-adv-x="989" d="M100 76v407l80 76l88 -80v-399l-88 -82zM100 717v469l168 -162v-305l-88 -80zM131 1235h559l80 -88l-80 -80h-401zM211 598l82 86h397l80 -86l-80 -82h-401zM307 365l2 112h119l363 -362v-119h-119zM725 717v311l80 78l88 -82v-305l-88 -80z" />
<glyph unicode="s" horiz-adv-x="989" d="M100 717v311l80 78l88 -82v-305l-88 -80zM131 86l78 82h481l80 -82l-80 -86h-479zM211 598l82 86h397l80 -86l-80 -82h-401zM211 1147l82 88h469l80 -88l-80 -80h-473zM725 205v278l80 76l88 -80v-270l-88 -80z" />
<glyph unicode="t" horiz-adv-x="774" d="M61 1147l82 88h496l80 -88l-80 -80h-500zM301 76v407l80 76l86 -80v-399l-86 -82zM301 717v303h166v-301l-86 -80z" />
<glyph unicode="u" horiz-adv-x="989" d="M100 205v278l80 76l88 -80v-270l-88 -80zM100 717v440l80 78l88 -80v-436l-88 -80zM211 86l78 82h401l80 -82l-80 -86h-397zM725 205v278l80 76l88 -80v-270l-88 -80zM725 717v440l80 78l88 -80v-436l-88 -80z" />
<glyph unicode="v" horiz-adv-x="989" d="M100 74v409l80 76l88 -80v-403l-88 -80zM100 717v444l80 76l88 -82v-436l-88 -80zM303 84l2 121l381 379l119 2v-119l-385 -383h-117zM725 717v444l80 76l88 -82v-436l-88 -80z" />
<glyph unicode="w" horiz-adv-x="989" d="M100 203v309l80 80l88 -82v-305l-88 -80zM100 745v410l80 76l88 -80v-401l-88 -80zM211 84l78 80h401l80 -80l-80 -84h-397zM418 207v178l80 80l88 -80v-178h-168zM725 203v309l80 80l88 -82v-305l-88 -80zM725 745v410l80 76l88 -80v-401l-88 -80z" />
<glyph unicode="x" horiz-adv-x="948" d="M100 0v115l234 481h115v-123l-228 -473h-121zM100 1116v117h121l228 -475v-119h-115zM496 473v123h116l234 -481v-115h-121zM496 639v119l229 475h121v-117l-234 -477h-116z" />
<glyph unicode="y" horiz-adv-x="989" d="M100 717v440l80 78l88 -80v-436l-88 -80zM158 86l75 82h457l80 -82l-80 -86h-450zM211 598l82 86h397l80 -86l-80 -82h-401zM725 205v278l80 76l88 -80v-270l-88 -80zM725 717v440l80 78l88 -80v-436l-88 -80z" />
<glyph unicode="z" horiz-adv-x="870" d="M100 86l78 82h508l80 -82l-80 -86h-506zM106 1147l80 88h500l80 -88l-80 -80h-504zM182 213v119l131 264l113 31l33 -113l-166 -301h-111zM401 760l164 268h119v-115l-139 -239l-113 -29z" />
<glyph unicode="{" horiz-adv-x="851" d="M100 809l80 84h113l78 -82l-80 -82h-113zM330 205v491l80 78l86 -82v-483l-86 -80zM330 930v495l80 76l86 -82v-487l-86 -80zM440 86l78 82h154l80 -82l-80 -86h-152zM440 1542l80 88h152l80 -86l-80 -82h-154z" />
<glyph unicode="|" horiz-adv-x="372" d="M100 -338v838l80 75l88 -79v-830l-88 -80zM100 733v817l80 76l88 -82v-809l-88 -80z" />
<glyph unicode="}" horiz-adv-x="851" d="M100 86l80 82h156l78 -82l-82 -86h-152zM100 1544l80 84h152l82 -86l-78 -80h-156zM356 209v483l86 82l82 -78v-491l-82 -76zM356 932v487l86 82l82 -76v-495l-82 -78zM481 811l78 82h113l80 -84l-76 -80h-115z" />
<glyph unicode="~" horiz-adv-x="796" d="M100 1401v115l213 112h121l-2 -76l141 76h121v-117l-219 -110h-115v74l-143 -74h-117z" />
<glyph unicode="&#xa1;" horiz-adv-x="456" d="M147 274l78 78l88 -82v-612l-88 -82l-78 78v620zM147 506v381l78 78l88 -82v-371l-88 -82zM147 1126l78 76l88 -80l-88 -78z" />
<glyph unicode="&#xa2;" horiz-adv-x="862" d="M100 600v506l80 76l88 -80v-498l-88 -82zM211 481l78 80h401l80 -80l-80 -88l-397 2zM211 1219l82 88h397l80 -88l-80 -80h-401zM385 172v174h172v-176l-88 -82zM385 1356v176l84 84l88 -82v-178h-172z" />
<glyph unicode="&#xa3;" horiz-adv-x="1138" d="M100 43v653l80 78l88 -82v-483zM100 930v495l80 76l88 -82v-487l-88 -80zM123 0l166 168h563l164 -168h-893zM211 809l82 88h559l80 -86l-80 -82h-563zM211 1542l82 86h559l80 -84l-80 -82h-563zM885 205v223l80 76l88 -80v-385z" />
<glyph unicode="&#xa5;" d="M100 930v620l80 76l88 -82v-612l-88 -80zM211 809l82 88h559l80 -86l-80 -82h-563zM217 258l80 88h197v86h-199l-78 80l80 88h197v74h168v-74h194l80 -86l-80 -82h-197v-86h197l80 -86l-80 -82h-194v-96l-87 -82l-81 76v102h-199zM885 930v620l80 76l88 -82v-612l-88 -80 z" />
<glyph unicode="&#xa7;" horiz-adv-x="1243" d="M106 727q0 101 46 174t137 131l57 35q-61 54 -88 115t-25 143q1 96 57 173.5t144.5 118.5t188.5 42q188 0 301.5 -120t107.5 -300l-129 2q9 87 -24.5 155t-108.5 107q-51 25 -113.5 28t-119 -13.5t-100 -57t-56.5 -96.5q-39 -164 162 -287l334 -207q62 -38 104.5 -70.5 t83.5 -76t61 -96.5t19 -115q-1 -100 -48 -173t-139 -136l-67 -45q67 -51 98.5 -112.5t34.5 -147.5q4 -151 -110.5 -248.5t-286.5 -102.5q-186 -4 -306 123.5t-112 304.5h137q-16 -141 74 -225q58 -51 146 -68t170 12.5t114 102.5q37 87 7.5 175t-112.5 143l-466 309 q-173 116 -173 303zM231 756q-5 -129 136 -221l448 -299l55 34q70 43 107 94t37 123q0 125 -119 199l-473 303l-47 -24q-141 -77 -144 -209z" />
<glyph unicode="&#xa8;" horiz-adv-x="817" d="M102 1511l115 117l113 -115l-113 -114zM487 1511l113 117l119 -115l-119 -114z" />
<glyph unicode="&#xa9;" horiz-adv-x="1798" d="M103 815q0 150 51.5 293.5t147.5 256t251.5 181t347.5 68.5q193 0 348.5 -68.5t251.5 -181t148 -256t52 -293.5t-52 -293.5t-148 -256t-251.5 -181t-348.5 -68.5q-192 0 -347.5 68.5t-251.5 181t-147.5 256t-51.5 293.5zM188 814q0 -134 46 -262t131.5 -228.5t224.5 -162 t311 -61.5t311.5 61.5t225 162t132 228.5t46.5 262t-46.5 262t-132 228.5t-225 162t-311.5 61.5t-311 -61.5t-224.5 -162t-131.5 -228.5t-46 -262zM483 807q-1 99 26 190.5t78 165t134 116t186 38.5q141 -3 246 -73.5t127 -196.5l6 -37h-96l-6 30q-21 91 -101 142.5 t-176 48.5q-71 -2 -127.5 -26.5t-94 -64t-62 -94t-35 -113t-10.5 -122.5q0 -67 6.5 -119.5t26.5 -106.5t53 -91.5t89 -65t132 -35.5q107 -12 200 65.5t115 194.5h96q-30 -158 -144 -254t-273 -86q-108 6 -187 49.5t-123 114t-64.5 152t-21.5 178.5z" />
<glyph unicode="&#xaa;" horiz-adv-x="608" d="M106 1053v202l39 35l43 -37v-200l-43 -41zM106 1370v156l39 41l43 -41v-156l-43 -37zM115 879v77h381v-77h-381zM162 1313l41 41h198l39 -41l-39 -41h-202zM162 1583l41 45h198l39 -41l-39 -41h-202zM416 1053v202l41 35l45 -37v-200l-45 -41zM416 1370v156l41 41l45 -41 v-156l-45 -37z" />
<glyph unicode="&#xab;" horiz-adv-x="1245" d="M100 516v229l467 345v-226l-331 -237l323 -230v-239zM686 516v229l467 345v-226l-332 -237l324 -230v-239z" />
<glyph unicode="&#xac;" horiz-adv-x="1789" d="M100 559v121h1600v-680h-131v559h-1469z" />
<glyph unicode="&#xad;" horiz-adv-x="925" d="M100 635l80 86l559 2l82 -88l-80 -80h-563z" />
<glyph unicode="&#xae;" horiz-adv-x="1798" d="M103 815q0 150 51.5 293.5t147.5 256t251.5 181t347.5 68.5q193 0 348.5 -68.5t251.5 -181t148 -256t52 -293.5t-52 -293.5t-148 -256t-251.5 -181t-348.5 -68.5q-192 0 -347.5 68.5t-251.5 181t-147.5 256t-51.5 293.5zM188 814q0 -134 46 -262t131.5 -228.5t224.5 -162 t311 -61.5t311.5 61.5t225 162t132 228.5t46.5 262t-46.5 262t-132 228.5t-225 162t-311.5 61.5t-311 -61.5t-224.5 -162t-131.5 -228.5t-46 -262zM578 324v958h352q71 0 125 -9.5t106.5 -34.5t83.5 -77t37 -129q11 -165 -160 -237q4 -2 14.5 -8l14 -8t12 -7.5t12.5 -8.5 t10.5 -8.5t10.5 -10.5t9 -12t9 -15q27 -52 28 -110.5t0 -123.5t20 -123q2 -4 20 -36h-98q-6 0 -6 2q-16 32 -21 81t-5 95t-3 92t-22 83.5t-56 57.5q-12 7 -25 11.5t-20.5 6.5t-25 3.5t-21.5 1.5h-27h-26h-254v-434h-94zM672 838l268 2q50 0 90.5 7.5t79.5 26t60 56.5t20 92 q-5 180 -244 180h-274v-364z" />
<glyph unicode="&#xb0;" horiz-adv-x="843" d="M100 1178v239l80 76l88 -82v-231l-88 -80zM211 1059l78 80h248l77 -80l-77 -88l-244 2zM211 1542l82 86h244l77 -86l-77 -82h-248zM569 1178v239l80 76l88 -82v-231l-88 -80z" />
<glyph unicode="&#xb1;" horiz-adv-x="1095" d="M100 -4v86h891v-86h-891zM117 655l2 111h387v391h104v-391h389v-111h-391v-391h-102v391h-389z" />
<glyph unicode="&#xb4;" horiz-adv-x="681" d="M100 1313l27 117l344 198l113 -35l-29 -110l-348 -201z" />
<glyph unicode="&#xb5;" horiz-adv-x="1388" d="M23 -377q-2 65 12.5 115t33 98t23.5 96q4 50 4 66v1165h197v-803q0 -98 59.5 -173t151.5 -74q60 1 127 33.5t116 91t50 122.5v803h190v-905q0 -77 40 -139t103 -51q78 15 101 102l18 61h41l-14 -71q-13 -62 -64.5 -113t-111.5 -74t-105 -16q-76 11 -138 77t-66 152 l-60 -57q-71 -72 -153 -119t-144 -47q-59 2 -138.5 38t-125.5 99v-82q0 -74 39.5 -182t40.5 -198q2 -60 -30.5 -106.5t-86.5 -45.5q-49 1 -78.5 41.5t-31.5 95.5z" />
<glyph unicode="&#xb6;" horiz-adv-x="1214" d="M104 1180q-2 121 56 224t161.5 163.5t229.5 60.5h567v-2048h-149v1893h-277v-1893h-151v1163q-118 2 -218.5 60.5t-159 158.5t-59.5 218z" />
<glyph unicode="&#xb7;" horiz-adv-x="432" d="M102 813l115 115l115 -115l-115 -115z" />
<glyph unicode="&#xba;" horiz-adv-x="595" d="M106 1112v141l41 37l43 -39v-137l-43 -39zM106 1368v156l41 41l43 -41v-154l-43 -39zM115 879v77h381v-77h-381zM162 1055l39 41h200l39 -41l-39 -45h-198zM162 1583l41 43h198l39 -41l-39 -41h-200zM418 1112v141l41 37l45 -39v-137l-45 -39zM418 1368v156l41 41l45 -41 v-154l-45 -39z" />
<glyph unicode="&#xbb;" horiz-adv-x="1253" d="M100 864v226l467 -345v-229l-461 -358v239l326 230zM686 864v226l467 -345v-229l-461 -358v239l324 230z" />
<glyph unicode="&#xbf;" d="M86 -213v487l88 80l80 -78v-495l-80 -76zM209 -338l80 82h563l76 -80l-82 -88h-557zM209 395l80 82h563l76 -80l-82 -88h-557zM870 514v371l88 80l80 -76v-379l-80 -78zM881 1126l77 80l80 -78l-80 -81z" />
<glyph unicode="&#xc0;" d="M106 76v620l80 78l88 -82v-612l-88 -82zM106 930v495l80 76l88 -82v-487l-88 -80zM219 809l78 88h559l82 -86l-80 -82h-563zM219 1542l78 86h559l82 -84l-80 -82h-563zM350 2124l115 35l342 -199l27 -115l-107 -30l-348 198zM893 76v620l80 78l86 -82v-612l-86 -82z M893 930v495l80 76l86 -82v-487l-86 -80z" />
<glyph unicode="&#xc1;" d="M98 76v620l80 78l88 -82v-612l-88 -82zM98 930v495l80 76l88 -82v-487l-88 -80zM211 809l78 88h559l82 -86l-80 -82h-563zM211 1542l78 86h559l82 -84l-80 -82h-563zM334 1847l26 117l345 199l112 -35l-29 -111l-348 -200zM885 76v620l80 78l86 -82v-612l-86 -82z M885 930v495l80 76l86 -82v-487l-86 -80z" />
<glyph unicode="&#xc2;" d="M98 76v620l80 78l88 -82v-612l-88 -82zM98 930v495l80 76l88 -82v-487l-88 -80zM211 809l78 88h559l82 -86l-80 -82h-563zM211 1542l78 86h559l82 -84l-80 -82h-563zM283 1815v120l145 142h121v-117l-150 -145h-116zM600 1960v117h121l145 -142v-120h-116zM885 76v620 l80 78l86 -82v-612l-86 -82zM885 930v495l80 76l86 -82v-487l-86 -80z" />
<glyph unicode="&#xc3;" d="M98 76v620l80 78l88 -82v-612l-88 -82zM98 930v495l80 76l88 -82v-487l-88 -80zM211 809l78 88h559l82 -86l-80 -82h-563zM211 1542l78 86h559l82 -84l-80 -82h-563zM291 1817v114l213 113h121l-2 -76l141 76h121v-117l-219 -110h-115v73l-143 -73h-117zM885 76v620 l80 78l86 -82v-612l-86 -82zM885 930v495l80 76l86 -82v-487l-86 -80z" />
<glyph unicode="&#xc4;" horiz-adv-x="1150" d="M98 76v620l80 78l88 -82v-612l-88 -82zM98 930v495l80 76l88 -82v-487l-88 -80zM211 809l78 88h559l82 -86l-80 -82h-563zM211 1542l78 86h559l82 -84l-80 -82h-563zM264 1931l115 117l113 -115l-113 -114zM649 1931l113 117l119 -115l-119 -114zM885 76v620l80 78 l86 -82v-612l-86 -82zM885 930v495l80 76l86 -82v-487l-86 -80z" />
<glyph unicode="&#xc5;" horiz-adv-x="1144" d="M98 76v620l80 78l88 -82v-612l-88 -82zM98 930v495l80 76l88 -82v-487l-88 -80zM211 809l78 88h559l82 -86l-80 -82h-563zM211 1542l78 86h559l82 -84l-80 -82h-563zM418 1935l162 166l176 -159l-176 -160zM535 1939l49 -47l51 50l-51 47zM885 76v620l80 78l86 -82v-612 l-86 -82zM885 930v495l80 76l86 -82v-487l-86 -80z" />
<glyph unicode="&#xc6;" horiz-adv-x="1830" d="M100 76v620l80 78l88 -82v-612l-88 -82zM100 930v495l80 76l88 -82v-487l-88 -80zM211 809l82 88h559l80 -86l-80 -82h-563zM211 1542l82 88h559l80 -86l-80 -82h-563zM885 31v665l80 78l88 -82v-489zM885 930v495l80 76l88 -82v-487l-88 -80zM926 0l166 168h561l80 -82 l-80 -86h-727zM1012 809l82 88h559l80 -86l-80 -82h-561zM1012 1542l82 88h559l80 -86l-80 -82h-561z" />
<glyph unicode="&#xc7;" horiz-adv-x="1036" d="M100 205v491l80 78l88 -82v-483l-88 -80zM100 930v495l80 76l88 -82v-487l-88 -80zM211 86l78 82h563l80 -82l-80 -86h-559zM211 1542l80 86h561l80 -84l-80 -82h-563zM416 -209l80 164h168l-80 -168l-80 -76z" />
<glyph unicode="&#xc8;" horiz-adv-x="1032" d="M100 43v653l80 78l88 -82v-483zM100 930v659l168 -170v-487l-88 -80zM123 0l166 168h563l80 -82l-80 -86h-729zM131 1630h721l80 -86l-80 -82h-563zM211 809l82 88h559l80 -86l-80 -82h-563zM276 2128l115 35l344 -199l25 -117l-107 -30l-346 200z" />
<glyph unicode="&#xc9;" horiz-adv-x="1024" d="M100 43v653l80 78l88 -82v-483zM100 930v659l168 -170v-487l-88 -80zM123 0l166 168h563l80 -82l-80 -86h-729zM131 1630h721l80 -86l-80 -82h-563zM211 809l82 88h559l80 -86l-80 -82h-563zM283 1849l26 117l344 199l113 -35l-29 -111l-348 -200z" />
<glyph unicode="&#xca;" horiz-adv-x="1032" d="M100 43v653l80 78l88 -82v-483zM100 930v659l168 -170v-487l-88 -80zM123 0l166 168h563l80 -82l-80 -86h-729zM131 1630h721l80 -86l-80 -82h-563zM211 809l82 88h559l80 -86l-80 -82h-563zM223 1815v120l146 142h120v-117l-149 -145h-117zM541 1960v117h121l145 -142 v-120h-117z" />
<glyph unicode="&#xcb;" horiz-adv-x="1032" d="M100 43v653l80 78l88 -82v-483zM100 930v659l168 -170v-487l-88 -80zM123 0l166 168h563l80 -82l-80 -86h-729zM131 1630h721l80 -86l-80 -82h-563zM195 1927l114 117l113 -115l-113 -114zM211 809l82 88h559l80 -86l-80 -82h-563zM580 1927l112 117l119 -115l-119 -114z " />
<glyph unicode="&#xcc;" horiz-adv-x="458" d="M-10 2128l114 35l345 -199l24 -117l-106 -30l-347 200zM147 76v620l82 78l86 -82v-612l-86 -82zM147 930v620l82 76l86 -82v-612l-86 -80z" />
<glyph unicode="&#xcd;" horiz-adv-x="458" d="M-31 1847l27 117l344 199l113 -35l-29 -111l-348 -200zM147 76v620l82 78l86 -82v-612l-86 -82zM147 930v620l82 76l86 -82v-612l-86 -80z" />
<glyph unicode="&#xce;" horiz-adv-x="458" d="M-61 1815v120l145 142h121v-117l-150 -145h-116zM147 76v620l82 78l86 -82v-612l-86 -82zM147 930v620l82 76l86 -82v-612l-86 -80zM256 1960v117h121l145 -142v-120h-116z" />
<glyph unicode="&#xcf;" horiz-adv-x="458" d="M-80 1927l115 117l112 -115l-112 -114zM147 76v620l82 78l86 -82v-612l-86 -82zM147 930v620l82 76l86 -82v-612l-86 -80zM305 1927l113 117l119 -115l-119 -114z" />
<glyph unicode="&#xd1;" d="M100 76v620l80 78l88 -82v-612l-88 -82zM100 930v620l80 76l88 -82v-612l-88 -80zM301 1817v114l213 113h121l-2 -76l141 76h121v-117l-219 -110h-115v73l-143 -73h-117zM317 1548l117 -2l404 -502v-116l-111 2l-408 506zM885 76v620l80 78l88 -82v-612l-88 -82zM885 930 v620l80 76l88 -82v-612l-88 -80z" />
<glyph unicode="&#xd2;" d="M100 205v491l80 78l88 -82v-483l-88 -80zM100 930v495l80 76l88 -82v-487l-88 -80zM211 86l78 82h563l80 -82l-80 -86h-559zM211 1542l82 88h559l80 -86l-80 -82h-563zM342 2128l115 35l344 -199l24 -117l-106 -30l-346 200zM885 205v491l80 78l88 -82v-483l-88 -80z M885 930v495l80 76l88 -82v-487l-88 -80z" />
<glyph unicode="&#xd3;" d="M100 205v491l80 78l88 -82v-483l-88 -80zM100 930v495l80 76l88 -82v-487l-88 -80zM211 86l78 82h563l80 -82l-80 -86h-559zM211 1542l82 88h559l80 -86l-80 -82h-563zM328 1847l26 117l344 199l113 -35l-29 -111l-348 -200zM885 205v491l80 78l88 -82v-483l-88 -80z M885 930v495l80 76l88 -82v-487l-88 -80z" />
<glyph unicode="&#xd4;" d="M100 205v491l80 78l88 -82v-483l-88 -80zM100 930v495l80 76l88 -82v-487l-88 -80zM211 86l78 82h563l80 -82l-80 -86h-559zM211 1542l82 88h559l80 -86l-80 -82h-563zM289 1815v120l145 142h121v-117l-149 -145h-117zM606 1960v117h121l145 -142v-120h-116zM885 205v491 l80 78l88 -82v-483l-88 -80zM885 930v495l80 76l88 -82v-487l-88 -80z" />
<glyph unicode="&#xd5;" horiz-adv-x="1150" d="M100 205v491l80 78l88 -82v-483l-88 -80zM100 930v495l80 76l88 -82v-487l-88 -80zM211 86l78 82h563l80 -82l-80 -86h-559zM211 1542l82 88h559l80 -86l-80 -82h-563zM289 1817v114l213 113h121l-2 -76l141 76h121v-117l-219 -110h-115v73l-143 -73h-117zM885 205v491 l80 78l88 -82v-483l-88 -80zM885 930v495l80 76l88 -82v-487l-88 -80z" />
<glyph unicode="&#xd6;" horiz-adv-x="1142" d="M100 205v491l80 78l88 -82v-483l-88 -80zM100 930v495l80 76l88 -82v-487l-88 -80zM211 86l78 82h563l80 -82l-80 -86h-559zM211 1542l82 88h559l80 -86l-80 -82h-563zM276 1931l115 117l113 -115l-113 -114zM662 1931l112 117l119 -115l-119 -114zM885 205v491l80 78 l88 -82v-483l-88 -80zM885 930v495l80 76l88 -82v-487l-88 -80z" />
<glyph unicode="&#xd8;" d="M100 205v491l80 78l88 -82v-483l-88 -80zM100 930v495l80 76l88 -82v-487l-88 -80zM211 86l78 82h563l80 -82l-80 -86h-559zM211 1542l82 86h559l80 -84l-80 -82h-563zM313 211v111l160 456l111 27l28 -115l-182 -479h-117zM553 956l168 463h119v-110l-148 -441l-108 -26 zM885 205v491l80 78l88 -82v-483l-88 -80zM885 930v495l80 76l88 -82v-487l-88 -80z" />
<glyph unicode="&#xd9;" d="M100 205v491l80 78l88 -82v-483l-88 -80zM100 930v622l80 76l88 -82v-614l-88 -80zM211 86l78 82h563l80 -82l-80 -86h-559zM354 2128l115 35l344 -199l25 -117l-107 -30l-346 200zM885 205v491l80 78l88 -82v-483l-88 -80zM885 930v622l80 76l88 -82v-614l-88 -80z" />
<glyph unicode="&#xda;" d="M100 205v491l80 78l88 -82v-483l-88 -80zM100 930v622l80 76l88 -82v-614l-88 -80zM211 86l78 82h563l80 -82l-80 -86h-559zM328 1847l26 117l344 199l113 -35l-29 -111l-348 -200zM885 205v491l80 78l88 -82v-483l-88 -80zM885 930v622l80 76l88 -82v-614l-88 -80z" />
<glyph unicode="&#xdb;" d="M100 205v491l80 78l88 -82v-483l-88 -80zM100 930v622l80 76l88 -82v-614l-88 -80zM211 86l78 82h563l80 -82l-80 -86h-559zM295 1815v120l145 142h121v-117l-149 -145h-117zM612 1960v117h121l146 -142v-120h-117zM885 205v491l80 78l88 -82v-483l-88 -80zM885 930v622 l80 76l88 -82v-614l-88 -80z" />
<glyph unicode="&#xdc;" horiz-adv-x="1150" d="M100 205v491l80 78l88 -82v-483l-88 -80zM100 930v622l80 76l88 -82v-614l-88 -80zM211 86l78 82h563l80 -82l-80 -86h-559zM262 1927l115 117l112 -115l-112 -114zM647 1927l113 117l119 -115l-119 -114zM885 205v491l80 78l88 -82v-483l-88 -80zM885 930v622l80 76 l88 -82v-614l-88 -80z" />
<glyph unicode="&#xdf;" horiz-adv-x="1384" d="M100 86l80 82h135l170 -168h-305zM336 205v491l80 78l86 -82v-643zM336 930v495l80 76l86 -82v-487l-86 -80zM446 1542l82 86h557l80 -84l-80 -82h-563zM768 82l80 86h235l82 -86l-80 -82h-239zM768 811l80 86h235l82 -86l-80 -82h-239zM1120 205v491l80 78l86 -82v-483 l-86 -80zM1120 930v495l80 76l86 -82v-487l-86 -80z" />
<glyph unicode="&#xe0;" horiz-adv-x="989" d="M92 76v407l80 76l88 -80v-397l-88 -82zM92 717v311l80 78l88 -82v-305l-88 -80zM203 598l82 86l397 -2l80 -84l-80 -82h-401zM203 1147l82 88h397l80 -88l-80 -80h-401zM252 1718l115 33l344 -199l24 -114l-106 -31l-346 201zM717 76v407l80 76l88 -80v-397l-88 -82z M717 717v311l80 78l88 -82v-305l-88 -80z" />
<glyph unicode="&#xe1;" horiz-adv-x="997" d="M100 76v407l80 76l88 -80v-397l-88 -82zM100 717v311l80 78l88 -82v-305l-88 -80zM211 598l82 86l397 -2l80 -84l-80 -82h-401zM211 1147l82 88h397l80 -88l-80 -80h-401zM256 1436l27 116l344 199l112 -35l-28 -110l-349 -201zM725 76v407l80 76l88 -80v-397l-88 -82z M725 717v311l80 78l88 -82v-305l-88 -80z" />
<glyph unicode="&#xe2;" horiz-adv-x="972" d="M86 76v407l80 76l88 -80v-397l-88 -82zM86 717v311l80 78l88 -82v-305l-88 -80zM197 598l82 86l397 -2l80 -84l-80 -82h-402zM197 1147l82 88h397l80 -88l-80 -80h-402zM203 1405v121l145 141h121v-115l-150 -147h-116zM520 1552v115h121l145 -141v-121h-114zM711 76v407 l80 76l86 -80v-397l-86 -82zM711 717v311l80 78l86 -82v-305l-86 -80z" />
<glyph unicode="&#xe3;" horiz-adv-x="980" d="M92 76v407l80 76l88 -80v-397l-88 -82zM92 717v311l80 78l88 -82v-305l-88 -80zM203 598l82 86l397 -2l80 -84l-80 -82h-401zM203 1147l82 88h397l80 -88l-80 -80h-401zM217 1407v115l213 112h121l-2 -73l139 73h121v-114l-217 -113h-117v74l-143 -74h-115zM717 76v407 l80 76l88 -80v-397l-88 -82zM717 717v311l80 78l88 -82v-305l-88 -80z" />
<glyph unicode="&#xe4;" horiz-adv-x="989" d="M106 76v407l80 76l88 -80v-397l-88 -82zM106 717v311l80 78l88 -82v-305l-88 -80zM199 1520l114 114l113 -114l-113 -115zM217 598l80 86l397 -2l80 -84l-80 -82h-401zM217 1147l80 88h397l80 -88l-80 -80h-401zM584 1518l112 116l117 -114l-117 -115zM729 76v407l80 76 l88 -80v-397l-88 -82zM729 717v311l80 78l88 -82v-305l-88 -80z" />
<glyph unicode="&#xe5;" horiz-adv-x="995" d="M100 76v407l80 76l88 -80v-397l-88 -82zM100 717v311l80 78l88 -82v-305l-88 -80zM211 598l82 86l397 -2l80 -84l-80 -82h-401zM211 1147l82 88h397l80 -88l-80 -80h-401zM342 1548l162 168l174 -160l-174 -161zM457 1552l47 -47l55 49l-55 48zM725 76v407l80 76l88 -80 v-397l-88 -82zM725 717v311l80 78l88 -82v-305l-88 -80z" />
<glyph unicode="&#xe6;" horiz-adv-x="1511" d="M98 76v407l80 76l86 -80v-397l-86 -82zM98 717v311l80 78l86 -82v-305l-86 -80zM209 598l80 86h397l80 -86l-80 -82h-401zM209 1147l80 88h397l80 -88l-80 -80h-401zM721 35v448l80 76l86 -80v-278zM721 717v311l80 78l86 -82v-305l-86 -80zM750 0l168 168h401l80 -82 l-82 -86h-567zM840 598l80 86h397l82 -86l-80 -82h-401zM840 1147l80 88h397l82 -88l-80 -80h-401z" />
<glyph unicode="&#xe7;" horiz-adv-x="870" d="M100 205v829l80 76l88 -82v-819l-88 -80zM211 86l78 82h401l80 -82l-80 -86h-397zM211 1147l82 88h397l80 -88l-80 -80h-401zM319 -209l82 158l166 6l-80 -168l-81 -76z" />
<glyph unicode="&#xe8;" horiz-adv-x="878" d="M100 205v278l80 76l88 -80v-270l-88 -80zM100 717v311l80 78l88 -82v-305l-88 -80zM203 1716l114 35l345 -199l24 -116l-106 -31l-347 201zM211 86l78 82h401l80 -82l-80 -86h-397zM211 598l82 86h397l80 -86l-80 -82h-401zM211 1147l82 88h397l80 -88l-80 -80h-401z" />
<glyph unicode="&#xe9;" horiz-adv-x="876" d="M100 205v278l80 76l88 -80v-270l-88 -80zM100 717v311l80 78l88 -82v-305l-88 -80zM211 86l78 82h401l80 -82l-80 -86h-397zM211 598l82 86h397l80 -86l-80 -82h-401zM211 1147l82 88h397l80 -88l-80 -80h-401zM236 1436l26 116l344 199l113 -35l-29 -110l-348 -201z" />
<glyph unicode="&#xea;" horiz-adv-x="876" d="M100 205v278l80 76l88 -80v-270l-88 -80zM100 717v311l80 78l88 -82v-305l-88 -80zM160 1405v121l145 141h121v-117l-150 -145h-116zM211 86l78 82h401l80 -82l-80 -86h-397zM211 598l82 86h397l80 -86l-80 -82h-401zM211 1147l82 88h397l80 -88l-80 -80h-401zM477 1550 v117h121l145 -141v-121h-116z" />
<glyph unicode="&#xeb;" horiz-adv-x="868" d="M100 205v278l80 76l88 -80v-270l-88 -80zM100 717v311l80 78l88 -82v-305l-88 -80zM137 1518l115 116l113 -114l-113 -115zM211 86l78 82h401l80 -82l-80 -86h-397zM211 598l82 86h397l80 -86l-80 -82h-401zM211 1147l82 88h397l80 -88l-80 -80h-401zM522 1518l113 116 l119 -114l-119 -115z" />
<glyph unicode="&#xec;" horiz-adv-x="458" d="M-8 1718l114 33l343 -199l26 -114l-106 -31l-349 201zM160 76v409l82 76l86 -80v-403l-86 -82zM160 719v442l82 78l86 -82v-436l-86 -80z" />
<glyph unicode="&#xed;" horiz-adv-x="458" d="M-10 1438l26 114l344 199l113 -33l-29 -110l-348 -201zM158 76v409l82 76l86 -80v-403l-86 -82zM158 719v442l82 78l86 -82v-436l-86 -80z" />
<glyph unicode="&#xee;" horiz-adv-x="458" d="M-68 1405v121l144 141h121v-115l-150 -147h-115zM147 76v409l80 76l86 -80v-403l-86 -82zM147 719v442l80 78l86 -82v-436l-86 -80zM250 1552v115h119l145 -141v-121h-115z" />
<glyph unicode="&#xef;" horiz-adv-x="458" d="M-68 1511l115 117l115 -115l-115 -114zM160 78v409l82 78l86 -80v-403l-86 -82zM160 721v442l82 80l86 -82v-436l-86 -80zM317 1511l115 117l117 -115l-117 -114z" />
<glyph unicode="&#xf1;" horiz-adv-x="997" d="M100 74v409l80 76l88 -80v-403l-88 -80zM100 717v444l80 76l88 -82v-436l-88 -80zM199 1407v115l213 112h120l-2 -75l142 75h121v-116l-220 -111h-114v74l-144 -74h-116zM305 1040v115h121l268 -317v-121h-114zM725 74v409l80 76l88 -80v-403l-88 -80zM725 717v444l80 76 l88 -82v-436l-88 -80z" />
<glyph unicode="&#xf2;" horiz-adv-x="989" d="M100 205v278l80 76l88 -80v-270l-88 -80zM100 717v311l80 78l88 -82v-305l-88 -80zM211 86l78 82h401l80 -82l-80 -86h-397zM211 1147l82 88h397l80 -88l-80 -80h-401zM260 1718l115 35l344 -199l24 -116l-106 -31l-346 201zM725 205v278l80 76l88 -80v-270l-88 -80z M725 717v311l80 78l88 -82v-305l-88 -80z" />
<glyph unicode="&#xf3;" horiz-adv-x="989" d="M100 205v278l80 76l88 -80v-270l-88 -80zM100 717v311l80 78l88 -82v-305l-88 -80zM211 86l78 82h401l80 -82l-80 -86h-397zM211 1147l82 88h397l80 -88l-80 -80h-401zM248 1436l26 116l344 199l113 -35l-29 -110l-348 -201zM725 205v278l80 76l88 -80v-270l-88 -80z M725 717v311l80 78l88 -82v-305l-88 -80z" />
<glyph unicode="&#xf4;" horiz-adv-x="989" d="M100 205v278l80 76l88 -80v-270l-88 -80zM100 717v311l80 78l88 -82v-305l-88 -80zM199 1405v121l145 141h121v-117l-150 -145h-116zM211 86l78 82h401l80 -82l-80 -86h-397zM211 1147l82 88h397l80 -88l-80 -80h-401zM516 1550v117h121l145 -141v-121h-116zM725 205v278 l80 76l88 -80v-270l-88 -80zM725 717v311l80 78l88 -82v-305l-88 -80z" />
<glyph unicode="&#xf5;" horiz-adv-x="987" d="M100 205v278l80 76l88 -80v-270l-88 -80zM100 717v311l80 78l88 -82v-305l-88 -80zM203 1407v115l213 112h121l-2 -75l141 75h121v-116l-219 -111h-115v74l-144 -74h-116zM211 86l78 82h401l80 -82l-80 -86h-397zM211 1147l82 88h397l80 -88l-80 -80h-401zM725 205v278 l80 76l88 -80v-270l-88 -80zM725 717v311l80 78l88 -82v-305l-88 -80z" />
<glyph unicode="&#xf6;" horiz-adv-x="989" d="M100 205v278l80 76l88 -80v-270l-88 -80zM100 717v311l80 78l88 -82v-305l-88 -80zM178 1518l115 116l113 -114l-113 -115zM211 86l78 82h401l80 -82l-80 -86h-397zM211 1147l82 88h397l80 -88l-80 -80h-401zM563 1518l113 116l119 -114l-119 -115zM725 205v278l80 76 l88 -80v-270l-88 -80zM725 717v311l80 78l88 -82v-305l-88 -80z" />
<glyph unicode="&#xf7;" horiz-adv-x="1550" d="M100 584v147h1352v-147h-1352zM618 307q1 58 44 100t102 42q60 0 102.5 -42t42.5 -102q0 -61 -44 -104.5t-105 -42.5q-60 1 -101 45t-41 104zM621 1012q2 60 43.5 101.5t101.5 41.5t101.5 -42.5t41.5 -102.5q2 -62 -42 -105.5t-105 -42.5q-60 1 -101.5 45.5t-39.5 104.5z " />
<glyph unicode="&#xf8;" horiz-adv-x="989" d="M94 205v278l80 76l86 -80v-270l-86 -80zM94 717v311l80 78l86 -82v-305l-86 -80zM205 86l78 82h401l80 -82l-82 -86h-397zM205 1147l82 88h395l82 -88l-80 -80h-401zM305 211v111l84 270l109 26l30 -114l-104 -293h-119zM473 760l86 268h123v-110l-70 -246l-108 -25z M719 205v278l80 76l86 -80v-270l-86 -80zM719 717v311l80 78l86 -82v-305l-86 -80z" />
<glyph unicode="&#xf9;" horiz-adv-x="987" d="M100 205v278l80 76l88 -80v-270l-88 -80zM100 717v440l80 78l88 -80v-436l-88 -80zM211 86l78 82h401l80 -82l-80 -86h-397zM264 1716l115 35l344 -199l25 -116l-107 -31l-346 201zM725 205v278l80 76l88 -80v-270l-88 -80zM725 717v440l80 78l88 -80v-436l-88 -80z" />
<glyph unicode="&#xfa;" horiz-adv-x="995" d="M100 205v278l80 76l88 -80v-270l-88 -80zM100 717v440l80 78l88 -80v-436l-88 -80zM211 86l78 82h401l80 -82l-80 -86h-397zM262 1436l27 116l344 199l112 -35l-28 -110l-348 -201zM725 205v278l80 76l88 -80v-270l-88 -80zM725 717v440l80 78l88 -80v-436l-88 -80z" />
<glyph unicode="&#xfb;" horiz-adv-x="985" d="M100 205v278l80 76l88 -80v-270l-88 -80zM100 717v440l80 78l88 -80v-436l-88 -80zM205 1405v121l145 141h121v-117l-149 -145h-117zM211 86l78 82h401l80 -82l-80 -86h-397zM522 1550v117h121l145 -141v-121h-116zM725 205v278l80 76l88 -80v-270l-88 -80zM725 717v440 l80 78l88 -80v-436l-88 -80z" />
<glyph unicode="&#xfc;" horiz-adv-x="995" d="M100 205v278l80 76l88 -80v-270l-88 -80zM100 717v440l80 78l88 -80v-436l-88 -80zM188 1518l115 116l113 -114l-113 -115zM211 86l78 82h401l80 -82l-80 -86h-397zM573 1518l113 116l119 -114l-119 -115zM725 205v278l80 76l88 -80v-270l-88 -80zM725 717v440l80 78 l88 -80v-436l-88 -80z" />
<glyph unicode="&#xff;" horiz-adv-x="985" d="M100 717v440l80 78l88 -80v-436l-88 -80zM158 86l75 82h457l80 -82l-80 -86h-450zM178 1518l115 116l113 -114l-113 -115zM211 598l82 86h397l80 -86l-80 -82h-401zM563 1518l113 116l119 -114l-119 -115zM725 205v278l80 76l88 -80v-270l-88 -80zM725 717v440l80 78 l88 -80v-436l-88 -80z" />
<glyph unicode="&#x152;" horiz-adv-x="1828" d="M100 205v491l80 78l88 -82v-483l-88 -80zM100 930v495l80 76l88 -82v-487l-88 -80zM211 86l78 82h563l80 -82l-80 -86h-559zM211 1542l82 86h559l80 -84l-80 -82h-563zM885 205v491l80 78l88 -82v-483l-88 -80zM885 930v495l80 76l88 -82v-487l-88 -80zM999 86l76 82h563 l80 -82l-80 -86h-557zM999 1542l80 86h559l80 -84l-80 -82h-563zM1018 809l82 88h557l80 -86l-80 -82h-563z" />
<glyph unicode="&#x153;" horiz-adv-x="1495" d="M98 205v291l80 75l86 -79v-281l-86 -82zM98 717v311l80 78l86 -82v-305l-86 -80zM209 88l76 80h401l80 -82l-80 -86h-397zM209 1147l80 88h397l80 -88l-80 -80h-401zM721 205v287l80 75l86 -80v-276l-86 -82zM721 717v311l80 78l86 -82v-305l-86 -80zM750 0l168 168h401 l80 -82l-82 -86h-567zM840 598l80 86h397l82 -86l-80 -82h-401zM840 1147l80 88h397l82 -88l-80 -80h-401z" />
<glyph unicode="&#x178;" d="M100 930v620l80 76l88 -82v-612l-88 -80zM104 86l76 82h672l80 -82l-80 -86h-666zM211 809l82 88h559l80 -86l-80 -82h-563zM272 1927l115 117l113 -115l-113 -114zM657 1927l113 117l119 -115l-119 -114zM885 205v491l80 78l88 -82v-483l-88 -80zM885 930v620l80 76 l88 -82v-612l-88 -80z" />
<glyph unicode="&#x2000;" horiz-adv-x="1082" />
<glyph unicode="&#x2001;" horiz-adv-x="2165" />
<glyph unicode="&#x2002;" horiz-adv-x="1082" />
<glyph unicode="&#x2003;" horiz-adv-x="2165" />
<glyph unicode="&#x2004;" horiz-adv-x="721" />
<glyph unicode="&#x2005;" horiz-adv-x="541" />
<glyph unicode="&#x2006;" horiz-adv-x="360" />
<glyph unicode="&#x2007;" horiz-adv-x="360" />
<glyph unicode="&#x2008;" horiz-adv-x="270" />
<glyph unicode="&#x2009;" horiz-adv-x="433" />
<glyph unicode="&#x200a;" horiz-adv-x="120" />
<glyph unicode="&#x2010;" horiz-adv-x="925" d="M100 635l80 86l559 2l82 -88l-80 -80h-563z" />
<glyph unicode="&#x2011;" horiz-adv-x="925" d="M100 635l80 86l559 2l82 -88l-80 -80h-563z" />
<glyph unicode="&#x2012;" horiz-adv-x="925" d="M100 635l80 86l559 2l82 -88l-80 -80h-563z" />
<glyph unicode="&#x2013;" horiz-adv-x="1230" d="M100 645l80 82h875l78 -80l-80 -88h-873z" />
<glyph unicode="&#x2014;" horiz-adv-x="2250" d="M100 645l80 82h1891l77 -80l-80 -88h-1888z" />
<glyph unicode="&#x2018;" horiz-adv-x="411" d="M100 1464l111 164l111 2v-102l-111 -174h-109z" />
<glyph unicode="&#x2019;" horiz-adv-x="421" d="M100 1464l111 164l111 2v-102l-111 -174h-109z" />
<glyph unicode="&#x201a;" horiz-adv-x="421" d="M100 -70l111 164l111 2v-100l-111 -176h-109z" />
<glyph unicode="&#x201c;" horiz-adv-x="688" d="M100 1464l111 164l111 2v-102l-111 -174h-109zM369 1464l110 164l111 2l2 -102l-113 -174h-108z" />
<glyph unicode="&#x201d;" horiz-adv-x="688" d="M100 1464l111 164l111 2v-102l-111 -174h-109zM369 1464l110 164l111 2l2 -102l-113 -174h-108z" />
<glyph unicode="&#x201e;" horiz-adv-x="688" d="M100 -70l111 164l111 2v-100l-111 -176h-109zM369 -70l110 164l111 2l2 -100l-113 -176h-108z" />
<glyph unicode="&#x2022;" horiz-adv-x="753" d="M100 813l285 287l266 -266l-284 -285z" />
<glyph unicode="&#x2026;" horiz-adv-x="1417" d="M102 113l115 114l115 -112l-115 -117zM582 113l112 114l117 -112l-117 -117zM1053 113l114 114l115 -112l-115 -117z" />
<glyph unicode="&#x202f;" horiz-adv-x="433" />
<glyph unicode="&#x205f;" horiz-adv-x="541" />
<glyph unicode="&#x2122;" horiz-adv-x="1574" d="M100 1561v67h576v-67h-252v-732h-76v732h-248zM735 836v794h121l252 -698l256 696h117v-792h-80v706l-262 -704h-72l-254 706v-708h-78z" />
<glyph unicode="&#xe000;" horiz-adv-x="1228" d="M0 0v1229h1229v-1229h-1229z" />
</font>
</defs>
</svg>
