<?xml version="1.0" standalone="no"?>
<!DOCTYPE svg PUBLIC "-//W3C//DTD SVG 1.1//EN" "http://www.w3.org/Graphics/SVG/1.1/DTD/svg11.dtd" >
<svg xmlns="http://www.w3.org/2000/svg">
<metadata></metadata>
<defs>
<font id="the_mix_bold-bold" horiz-adv-x="1439" >
<font-face units-per-em="2048" ascent="1638" descent="-410" />
<missing-glyph horiz-adv-x="446" />
<glyph horiz-adv-x="2048" />
<glyph horiz-adv-x="2048" />
<glyph unicode="&#xd;" horiz-adv-x="446" />
<glyph unicode=" "  horiz-adv-x="446" />
<glyph unicode="&#x09;" horiz-adv-x="446" />
<glyph unicode="&#xa0;" horiz-adv-x="446" />
<glyph unicode="!" horiz-adv-x="622" d="M150 133q0 66 45.5 111t113.5 45t114 -45t46 -111t-46 -111t-114 -45t-113.5 45.5t-45.5 110.5zM158 1466h307l-39 -1081h-225z" />
<glyph unicode="&#x22;" horiz-adv-x="829" d="M90 1534h262l-33 -520h-196zM477 1534h262l-34 -520h-195z" />
<glyph unicode="#" horiz-adv-x="1421" d="M55 360v193h287l33 305h-260v193h280l35 331h225l-34 -331h251l33 331h228l-33 -331h266v-193h-287l-32 -305h260v-193h-281l-37 -360h-227l37 360h-250l-39 -360h-225l39 360h-269zM569 553h250l33 305h-250z" />
<glyph unicode="$" horiz-adv-x="1011" d="M96 905q0 137 88 235.5t234 127.5v207h186v-193q111 -4 209 -25l-18 -223q-123 35 -226 35q-113 0 -158.5 -41t-45.5 -96q0 -53 40.5 -86t102 -59.5t133.5 -54t133.5 -72t102.5 -111t41 -170.5q0 -70 -24 -132.5t-67 -113.5t-105.5 -87t-141.5 -54v-250h-189v235 q-70 2 -129 9.5t-119 17.5l19 238q59 -23 129.5 -33t130.5 -10q98 0 158.5 35.5t60.5 117.5q0 57 -40 91t-101.5 59.5t-131 52.5t-131 69t-101.5 108.5t-40 172.5z" />
<glyph unicode="%" horiz-adv-x="1665" d="M74 1063q0 86 28.5 153.5t76.5 113.5t111.5 70.5t131.5 24.5q70 0 131 -18t106.5 -59t71 -104.5t25.5 -153.5q0 -86 -29 -155t-78 -117t-113.5 -72.5t-134.5 -24.5q-147 0 -237 85t-90 257zM233 82l994 1354l188 -136l-993 -1353zM295 1073q0 -94 29.5 -133t87.5 -39 q53 0 89 44t36 130q0 96 -31 133t-90 37q-51 0 -86 -45t-35 -127zM899 299q0 86 28.5 153.5t77 113.5t111 71t129.5 25q70 0 131.5 -18.5t106.5 -59.5t70.5 -104.5t25.5 -153.5q0 -86 -28.5 -155t-78 -117t-113 -72.5t-132.5 -24.5q-147 0 -237.5 85t-90.5 257zM1120 309 q0 -94 30 -133t87 -39q53 0 88 44t35 130q0 96 -30 133t-89 37q-51 0 -86 -45t-35 -127z" />
<glyph unicode="&#x26;" horiz-adv-x="1642" d="M96 383q0 70 19.5 129t53.5 111.5t81 98.5t100 89q-53 59 -88 108.5t-56.5 93.5t-29.5 84t-8 81q0 68 26.5 130t79 108t128 74t173.5 28q178 0 271.5 -84t93.5 -220q0 -117 -62.5 -211t-177.5 -186q82 -78 188.5 -172t217.5 -176v-2q37 53 64.5 127t31.5 158 q-35 6 -78 11t-77 9v154q104 10 208.5 15t210.5 1q12 -174 -32.5 -328.5t-139.5 -281.5q129 -98 252 -180l-172 -201q-72 51 -142.5 102t-129.5 99q-96 -78 -232.5 -127.5t-302.5 -49.5q-121 0 -209 33t-146 89.5t-87 130t-29 155.5zM369 416q0 -43 17 -82t49 -68.5t77 -48 t100 -18.5q84 0 154.5 27.5t140.5 70.5q-111 88 -216 183t-183 173q-72 -61 -105.5 -117.5t-33.5 -119.5zM426 1190q0 -43 26.5 -95.5t92.5 -127.5q66 55 101.5 109t35.5 120q0 51 -30.5 87t-96.5 36q-55 0 -92 -35t-37 -94z" />
<glyph unicode="'" horiz-adv-x="442" d="M90 1534h262l-33 -520h-196z" />
<glyph unicode="(" horiz-adv-x="626" d="M106 584q0 242 66 492.5t213 492.5h244q-129 -215 -196.5 -461t-67.5 -514q0 -549 270 -989h-252q-152 244 -214.5 487.5t-62.5 491.5z" />
<glyph unicode=")" horiz-adv-x="626" d="M0 -395q133 219 200.5 463.5t67.5 519.5q0 268 -69.5 517t-198.5 464h252q145 -242 208.5 -490.5t63.5 -490.5q0 -248 -62.5 -494t-213.5 -489h-248z" />
<glyph unicode="*" horiz-adv-x="786" d="M63 1087l207 82l-207 82l93 162l174 -139l-33 221h186l-32 -221l174 139l92 -160l-207 -82l207 -81l-92 -162l-174 139l32 -221h-186l33 221l-176 -139z" />
<glyph unicode="+" horiz-adv-x="1159" d="M49 418v219h406v416h247v-416h408v-219h-408v-418h-247v418h-406z" />
<glyph unicode="," horiz-adv-x="528" d="M55 -258q106 113 119.5 184.5t-35.5 128.5q-29 35 -33 78t12.5 82t53.5 64.5t90 25.5q72 0 119 -56t47 -148.5t-60.5 -211t-203.5 -243.5z" />
<glyph unicode="-" horiz-adv-x="684" d="M90 416v209h504v-209h-504z" />
<glyph unicode="." horiz-adv-x="528" d="M96 143q0 70 49 119t119 49t118 -49t48 -119t-48 -119t-118 -49t-119 49.5t-49 118.5z" />
<glyph unicode="/" horiz-adv-x="870" d="M49 0l529 1382h256l-527 -1382h-258z" />
<glyph unicode="0" horiz-adv-x="1245" d="M86 514q0 131 45 234.5t121 176t176 110.5t209 38q145 0 245.5 -45t162 -119.5t89 -172t27.5 -199.5q0 -131 -45 -234.5t-121.5 -176.5t-178 -111t-214.5 -38q-106 0 -200.5 29t-164 93.5t-110.5 166t-41 248.5zM346 530q0 -72 16.5 -131t50 -103t85 -68.5t123.5 -24.5 q55 0 106 22.5t89 64.5t60.5 102t22.5 138q0 141 -67.5 231.5t-204.5 90.5q-57 0 -108.5 -21.5t-89.5 -63.5t-60.5 -101.5t-22.5 -135.5z" />
<glyph unicode="1" horiz-adv-x="700" d="M31 934l315 119h203v-1053h-268v803l-209 -86z" />
<glyph unicode="2" horiz-adv-x="985" d="M92 0v213l203 162q72 57 124 101t86 81t49 69.5t15 69.5q0 68 -45 111t-135 43q-66 0 -133.5 -23.5t-110.5 -50.5l-36 221q72 33 157.5 53.5t184.5 20.5q201 0 304 -89t103 -237q0 -115 -67.5 -209t-190.5 -192l-149 -119l-2 -2q84 6 198.5 7t249.5 1v-231h-805z" />
<glyph unicode="3" horiz-adv-x="937" d="M72 -362l22 229q37 -12 86 -21.5t103 -9.5q139 0 212.5 62.5t73.5 160.5q0 63 -30.5 106.5t-88 67t-136 29.5t-173.5 -4v209q205 -2 304.5 55.5t99.5 163.5q0 76 -51.5 120t-145.5 44q-59 0 -118.5 -16.5t-112.5 -45.5l-25 220q147 59 309 59q106 0 185.5 -26.5 t131.5 -71.5t77.5 -105.5t25.5 -128.5q0 -111 -62.5 -193.5t-162.5 -127.5v-2q123 -27 189.5 -117t66.5 -209q0 -96 -38 -182t-111.5 -150.5t-181 -102.5t-249.5 -38q-53 0 -104 7t-96 18z" />
<glyph unicode="4" horiz-adv-x="1134" d="M33 213l524 844h332v-821h217v-236h-217v-375h-258v375h-555zM285 231q33 2 83 3.5t102 1.5h97h70v569h-2z" />
<glyph unicode="5" horiz-adv-x="950" d="M90 -375l25 236q66 -16 151 -17q164 0 243 69t79 169q0 104 -85 167.5t-251 63.5q-31 0 -61.5 -2t-59.5 -4v746h692v-256l-444 2v-273q115 0 206 -29.5t153.5 -84t95 -129t32.5 -166.5q0 -111 -46 -203t-127 -158.5t-193.5 -104.5t-245.5 -38q-88 0 -164 12z" />
<glyph unicode="6" horiz-adv-x="1189" d="M106 567q0 209 54.5 371t153 272.5t237.5 169t309 58.5q23 0 57.5 -1t59.5 -3v-232q-33 4 -68 7t-67 3q-180 0 -290 -95t-153 -261q-4 -14 -8 -29.5t-8 -35.5l2 -3q45 57 123 90t176 33q201 0 314.5 -118.5t113.5 -319.5q0 -109 -38 -200t-107.5 -156.5t-165.5 -102.5 t-213 -37q-111 0 -199 38t-151.5 113t-97.5 185.5t-34 253.5zM399 463q0 -53 13.5 -101.5t40 -84t66.5 -56t95 -20.5q106 0 164 69.5t58 173.5q0 117 -56.5 179.5t-156.5 62.5q-55 0 -97.5 -18.5t-70 -50t-42 -71.5t-14.5 -83z" />
<glyph unicode="7" horiz-adv-x="937" d="M45 797v256h846v-222q-111 -256 -210 -562t-169 -644h-293q72 315 169 617.5t208 558.5q-29 0 -88 -1t-135 -2t-161 -1h-167z" />
<glyph unicode="8" horiz-adv-x="1140" d="M90 346q0 70 22.5 125t59.5 100t81 80t87 64l-2 2q-109 63 -170.5 147t-61.5 199q0 88 35 158.5t97.5 122t149.5 79t190 27.5q104 0 186 -24.5t140.5 -69.5t89 -108.5t30.5 -141.5q0 -111 -60.5 -193t-179.5 -159q49 -29 97.5 -65t85.5 -81t59.5 -100t22.5 -125 q0 -98 -40 -174t-109 -127t-160 -78t-193 -27q-109 0 -194 27t-143 76t-89 116.5t-31 149.5zM365 375q0 -80 55 -129t149 -49q88 0 145.5 45t57.5 123q0 82 -61.5 137t-161.5 106h-2q-78 -47 -130 -104.5t-52 -128.5zM381 1075q0 -68 52 -117t145 -100l2 -2q88 59 131 109 t43 116q0 63 -47.5 109.5t-139.5 46.5q-90 0 -138 -46t-48 -116z" />
<glyph unicode="9" horiz-adv-x="1189" d="M78 565q0 109 37 201t104.5 159.5t161.5 105.5t209 38q109 0 200 -35t156.5 -108.5t102 -186t36.5 -268.5q0 -199 -49 -357.5t-145 -270t-241.5 -171t-336.5 -59.5q-27 0 -63.5 3t-71.5 9v240q31 -10 72 -16.5t74 -6.5q182 0 290.5 81t153.5 247q4 16 9 39.5t9 40.5l-2 2 q-45 -53 -118.5 -87t-169.5 -34t-174 32t-132.5 88t-83 136t-28.5 178zM352 604q0 -117 54.5 -179.5t160.5 -62.5q104 0 162.5 67t58.5 159q0 111 -54 183.5t-163 72.5q-100 0 -159.5 -68.5t-59.5 -171.5z" />
<glyph unicode=":" horiz-adv-x="563" d="M115 143q0 70 49 119t117 49q70 0 119 -49t49 -119t-49.5 -119t-118.5 -49q-68 0 -117 49.5t-49 118.5zM115 723q0 70 49 119t117 49q70 0 119 -49t49 -119t-49.5 -119t-118.5 -49q-68 0 -117 49t-49 119z" />
<glyph unicode=";" horiz-adv-x="563" d="M76 -258q104 113 117.5 184.5t-33.5 128.5q-29 35 -34 78t11.5 82t53.5 64.5t90 25.5q72 0 120 -56t46.5 -148.5t-61.5 -211t-204 -243.5zM115 723q0 70 49 119t117 49q70 0 119 -49t49 -119t-49.5 -119t-118.5 -49q-68 0 -117 49t-49 119z" />
<glyph unicode="&#x3c;" horiz-adv-x="1032" d="M94 514l651 608l173 -172l-488 -434l488 -428l-170 -178z" />
<glyph unicode="=" horiz-adv-x="1169" d="M129 217v211h911v-211h-911zM129 608v211h911v-211h-911z" />
<glyph unicode="&#x3e;" horiz-adv-x="1032" d="M115 82l487 434l-487 428l170 178l653 -604l-651 -608z" />
<glyph unicode="?" horiz-adv-x="882" d="M111 1241l32 236q164 -6 285 -43t201 -95.5t118.5 -132t38.5 -153.5q0 -82 -29.5 -141.5t-71.5 -106.5t-88 -88t-80 -87t-46 -104.5t14 -140.5h-254q-35 96 -28.5 168t37 127t74.5 98t86 82t72 78t30 88q0 92 -105.5 149.5t-285.5 65.5zM205 133q0 66 46 111t114 45 t113.5 -45t45.5 -111t-46 -111t-113 -45q-68 0 -114 45.5t-46 110.5z" />
<glyph unicode="@" horiz-adv-x="1660" d="M98 616q0 176 62.5 322.5t171 251t254 163t311.5 58.5q156 0 278.5 -46t206.5 -125t128 -185.5t44 -227.5q0 -123 -31.5 -214t-90 -152.5t-139.5 -91t-177 -29.5q-102 0 -148 49t-42 121h-6q-33 -66 -99.5 -118t-156.5 -52q-92 0 -141.5 62.5t-49.5 191.5q0 98 26.5 184 t80 150.5t135.5 101.5t190 37q63 0 124 -10t104 -25l-62 -340q-16 -96 2.5 -134t73.5 -38q86 0 136 66.5t50 228.5q0 80 -24.5 152.5t-78.5 128t-139 89.5t-206 34q-117 0 -219.5 -42t-178 -119t-119.5 -183.5t-44 -235.5q0 -111 30.5 -200t93 -151.5t157.5 -97t224 -34.5 q80 0 161 12t159 41v-193q-33 -12 -76 -22t-90 -17.5t-95 -10.5t-89 -3q-170 0 -301 47t-220.5 133t-134.5 206t-45 267zM666 631q0 -113 55 -113q57 0 109.5 80t80.5 231l15 72q-37 10 -78 10q-45 0 -79 -27.5t-57.5 -68.5t-34.5 -91t-11 -93z" />
<glyph unicode="A" horiz-adv-x="1282" d="M2 0l483 1382h301l494 -1382h-295l-96 283h-522l-97 -283h-268zM434 494h385l-129 362q-20 57 -35.5 109.5t-27.5 111.5h-2q-25 -111 -66 -231z" />
<glyph unicode="B" horiz-adv-x="1187" d="M143 0v1380q88 4 213 7.5t254 3.5q225 0 345 -88.5t120 -253.5q0 -104 -60.5 -187.5t-158.5 -122.5v-4q61 -12 107.5 -42.5t77 -72.5t46 -92.5t15.5 -101.5q0 -76 -27.5 -152.5t-93.5 -138t-172.5 -100.5t-261.5 -39q-63 0 -168 2t-236 2zM410 221q25 -4 61.5 -6t83.5 -2 q131 0 196.5 56.5t65.5 150.5q0 102 -80 146t-211 44h-55t-61 -2v-387zM410 811q25 -2 50 -2h58q137 0 207 52.5t70 144.5q0 78 -51.5 124t-178.5 46q-41 0 -81 -1t-74 -4v-360z" />
<glyph unicode="C" horiz-adv-x="1159" d="M78 647q0 164 43 301t129 235.5t216 154t304 55.5q74 0 149.5 -9.5t143.5 -27.5l-29 -242q-139 41 -278 41q-96 0 -169 -35t-121 -96t-71.5 -146t-23.5 -186q0 -227 96 -348t307 -121q63 0 139 16.5t129 41.5l31 -238q-78 -29 -168 -45t-188 -16q-182 0 -304 55 t-197 148.5t-106.5 213t-31.5 248.5z" />
<glyph unicode="D" horiz-adv-x="1366" d="M143 2v1378q82 4 200 7.5t247 3.5q160 0 290 -37t221 -119t140 -210t49 -310q0 -178 -55 -313.5t-156.5 -226.5t-242 -137t-308.5 -46q-109 0 -203 3t-182 7zM410 229q29 -4 66.5 -7t78.5 -3q98 0 180 27.5t141.5 86t93.5 148.5t34 213q0 111 -24 199t-75 149.5t-133 93 t-201 31.5q-47 0 -88 -1t-73 -5v-932z" />
<glyph unicode="E" horiz-adv-x="1009" d="M143 0v1382h752v-223h-485v-340h460v-217h-460v-375h485v-227h-752z" />
<glyph unicode="F" horiz-adv-x="952" d="M143 0v1382h740v-225h-473v-356h446v-219h-446v-582h-267z" />
<glyph unicode="G" horiz-adv-x="1382" d="M74 659q0 162 53 299.5t153.5 235.5t244 153.5t323.5 55.5q104 0 202.5 -16.5t188.5 -43.5l-41 -247q-84 33 -176 51t-191 18q-102 0 -188 -31.5t-148.5 -93t-97.5 -150.5t-35 -206q0 -221 115 -343t326 -122q96 0 176 25v481h266v-659q-104 -41 -226 -63.5t-247 -22.5 q-164 0 -294 47t-220 135t-137 214t-47 283z" />
<glyph unicode="H" horiz-adv-x="1406" d="M143 0v1382h267v-553h585v553h267v-1382h-267v600h-585v-600h-267z" />
<glyph unicode="I" horiz-adv-x="552" d="M143 0v1382h267v-1382h-267z" />
<glyph unicode="J" horiz-adv-x="686" d="M0 -2v229q25 -10 57.5 -15t69.5 -5q72 0 112 39t40 151v985h266v-995q0 -86 -18.5 -159.5t-62.5 -128t-116 -86t-176 -31.5q-55 0 -96 5t-76 11z" />
<glyph unicode="K" horiz-adv-x="1222" d="M143 0v1382h267v-626l448 626h324l-506 -667l528 -715h-350l-444 664v-664h-267z" />
<glyph unicode="L" horiz-adv-x="878" d="M143 0v1382h267v-1149h448v-233h-715z" />
<glyph unicode="M" horiz-adv-x="1804" d="M66 0l213 1382h311l231 -710q49 -145 76 -291h4q16 80 33.5 144.5t44.5 142.5l238 714h309l215 -1382h-281l-98 659q-16 98 -25.5 178.5t-17.5 151.5h-4q-14 -66 -31.5 -138.5t-44.5 -156.5l-219 -694h-264l-211 641q-29 86 -52.5 175t-35.5 173h-4q-6 -92 -16.5 -176 t-22.5 -176l-78 -637h-270z" />
<glyph unicode="N" horiz-adv-x="1431" d="M143 0v1382h346l385 -659q47 -80 89.5 -164t80.5 -162q-4 51 -7 121t-4 145.5t-2 150.5t-1 138v430h258v-1382h-344l-405 698q-45 78 -82 154t-68 143q2 -45 5 -105.5t4 -128t2 -137t1 -130.5v-494h-258z" />
<glyph unicode="O" d="M68 674q0 172 53 307t145 229.5t215 144.5t262 50q137 0 253 -42t200 -128t130 -216t46 -308q0 -172 -53 -307.5t-144.5 -230.5t-214 -145.5t-264.5 -50.5q-158 0 -276.5 48.5t-196.5 139.5t-116.5 220t-38.5 289zM352 702q0 -111 21.5 -199.5t66.5 -151t114 -97.5 t161 -35q68 0 134 26.5t119.5 84t86 146.5t32.5 214q0 231 -94 353t-274 122q-72 0 -138.5 -28.5t-116.5 -86t-81 -144.5t-31 -204z" />
<glyph unicode="P" horiz-adv-x="1087" d="M143 0v1382q86 4 177.5 6.5t193.5 2.5q256 0 391 -111.5t135 -316.5q0 -100 -36.5 -188.5t-107.5 -153t-171 -101.5t-225 -37h-42t-48 4v-487h-267zM410 711q39 -6 77 -6q123 2 200 65t77 176q0 104 -62.5 166t-197.5 62h-48.5t-45.5 -3v-460z" />
<glyph unicode="Q" d="M68 674q0 172 53 307t145 229.5t215 144.5t262 50q137 0 253 -42t200 -128t130 -216t46 -308q0 -172 -53 -307.5t-144.5 -230.5t-214 -145.5t-264.5 -50.5q-158 0 -276.5 48.5t-196.5 139.5t-116.5 220t-38.5 289zM352 702q0 -111 21.5 -199.5t66.5 -151t114 -97.5 t161 -35q68 0 134 26.5t119.5 84t86 146.5t32.5 214q0 231 -94 353t-274 122q-72 0 -138.5 -28.5t-116.5 -86t-81 -144.5t-31 -204zM618 -127q74 9 137 9q51 0 95 -6q96 -13 183 -32.5t181 -31.5q37 -5 79 -5q65 0 143 11v-234q-94 -15 -170 -15q-39 0 -72 3 q-102 12 -191.5 31.5t-178.5 34.5q-45 7 -98 7q-51 0 -108 -7v235z" />
<glyph unicode="R" horiz-adv-x="1161" d="M143 0v1382q82 4 179.5 6.5t218.5 2.5q115 0 207 -21.5t157.5 -68t101 -120t35.5 -180.5q0 -78 -25.5 -142t-71.5 -114.5t-111.5 -83t-143.5 -45.5q29 -39 57.5 -77.5t55.5 -73.5l332 -465h-330l-385 571h-10v-571h-267zM410 768q14 -2 39.5 -3t56.5 -1q121 0 189.5 56.5 t68.5 154.5q0 199 -250 199q-29 0 -56.5 -1.5t-47.5 -5.5v-399z" />
<glyph unicode="S" horiz-adv-x="1030" d="M82 989q0 92 36 169t103.5 131t164.5 85t222 31q59 0 124 -7t126 -18l-14 -233q-59 16 -122 26.5t-126 10.5q-117 0 -174 -47t-57 -121q0 -61 43 -99t107.5 -68t140 -58.5t140 -73.5t107.5 -112.5t43 -176.5q0 -98 -38 -180t-108.5 -142.5t-172 -94.5t-228.5 -34 q-74 0 -145.5 8.5t-136.5 24.5l16 248q59 -20 136 -34.5t153 -14.5q102 0 171 43t69 139q0 66 -43.5 105t-108 67.5t-139 56t-139 71.5t-107.5 113.5t-43 184.5z" />
<glyph unicode="T" horiz-adv-x="1044" d="M31 1155v227h983v-227h-359v-1155h-266v1155h-358z" />
<glyph unicode="U" horiz-adv-x="1394" d="M143 479v903h267v-886q0 -66 12 -120t45 -94t88 -61.5t141 -21.5q154 0 222.5 72.5t68.5 248.5v862h264v-845q0 -285 -149.5 -422.5t-423.5 -137.5q-164 0 -267.5 41t-163 111t-82 161t-22.5 189z" />
<glyph unicode="V" horiz-adv-x="1286" d="M6 1382h291l268 -809q20 -59 42 -126.5t40 -143.5h4q16 72 35 135.5t47 151.5l273 792h272l-483 -1382h-308z" />
<glyph unicode="W" horiz-adv-x="1947" d="M49 1382h285l188 -764q16 -68 28.5 -138t22.5 -142h2q10 70 22.5 138.5t31.5 133.5l211 772h282l213 -768q16 -57 30.5 -126.5t25.5 -141.5h2q10 72 22 137.5t29 126.5l188 772h266l-352 -1382h-327l-201 762q-18 66 -30.5 138.5t-22.5 146.5h-2q-14 -143 -52 -279 l-200 -768h-310z" />
<glyph unicode="X" horiz-adv-x="1286" d="M20 0l441 707l-414 675h309l281 -479l278 479h304l-408 -673l455 -709h-336l-297 508l-297 -508h-316z" />
<glyph unicode="Y" horiz-adv-x="1148" d="M6 1382h291l182 -397q29 -61 51.5 -118.5t42.5 -110.5h5q23 59 51 124.5t59 131.5l174 370h283l-440 -893v-489h-267v487z" />
<glyph unicode="Z" horiz-adv-x="1099" d="M92 0v205l498 811q23 35 44 66.5t46 64.5q-37 -2 -92.5 -3t-159.5 -1h-319v239h892v-213l-526 -831q-16 -25 -30.5 -48.5t-32.5 -47.5q27 4 98.5 4h200.5h299v-246h-918z" />
<glyph unicode="[" horiz-adv-x="671" d="M145 -420v2011h453v-207h-207v-1593h207v-211h-453z" />
<glyph unicode="\" horiz-adv-x="847" d="M33 1382h246l540 -1382h-252z" />
<glyph unicode="]" horiz-adv-x="671" d="M74 -209h205v1593h-205v207h450v-2011h-450v211z" />
<glyph unicode="^" horiz-adv-x="1095" d="M102 782l334 600h203l350 -598l-188 -94l-269 506l-256 -506z" />
<glyph unicode="_" horiz-adv-x="1024" d="M0 -305h1024v-211h-1024v211z" />
<glyph unicode="`" horiz-adv-x="765" d="M170 1346l113 182l356 -225l-92 -152z" />
<glyph unicode="a" horiz-adv-x="1130" d="M78 248q0 92 43 161.5t120.5 116.5t186.5 71t238 24v55q0 80 -44 121t-155 41q-70 0 -153 -21.5t-148 -58.5l-23 219q78 29 172.5 46t192.5 17q123 0 204 -23.5t129 -69.5t67.5 -111.5t19.5 -149.5v-485q37 -6 85 -11.5t93 -9.5v-164q-98 -12 -209 -17q-62 -3 -120 -3 q-47 0 -91 2q0 45 2 89t8 85l-2 2q-37 -86 -124 -140t-201 -54q-139 0 -215 72.5t-76 195.5zM328 289q0 -49 31.5 -79t89.5 -30q49 0 89 21.5t68.5 55.5t44 78t15.5 91v25q-104 0 -170 -13.5t-103 -37t-51 -52.5t-14 -59z" />
<glyph unicode="b" horiz-adv-x="1153" d="M-27 1315v164q98 12 212 17q63 3 127 3q51 0 102 -2v-440q0 -47 -4 -102.5t-13 -96.5h2q39 84 119 132t189 48q184 0 279 -125t95 -352q0 -129 -36.5 -236.5t-107.5 -184.5t-173 -118.5t-234 -41.5q-111 0 -200.5 12t-177.5 37v1265q-37 6 -85.5 11.5t-93.5 9.5zM414 207 q55 -18 135 -19q113 0 184.5 79.5t71.5 267.5q0 286 -173 286h-1q-51 0 -91 -27.5t-68 -72.5t-43 -104.5t-15 -122.5v-287z" />
<glyph unicode="c" horiz-adv-x="870" d="M70 475q0 119 31.5 221.5t96 178t164 118.5t234.5 43q106 0 209 -28l-27 -228q-41 16 -88 26.5t-96 10.5q-125 0 -187.5 -85t-62.5 -230q0 -131 55.5 -212t186.5 -81q53 0 106 10t94 33l21 -223q-53 -20 -125 -33.5t-154 -13.5q-106 0 -191 28.5t-144.5 88t-91 153.5 t-31.5 223z" />
<glyph unicode="d" horiz-adv-x="1200" d="M72 455q0 129 36.5 235.5t105.5 183t169 119.5t227 43q33 0 64 -2t65 -6v266q-37 6 -85 11.5t-93 9.5v164q98 12 212 17q63 3 126 3q50 0 100 -2v-1296q37 -6 85.5 -11.5t93.5 -9.5v-164q-98 -12 -209 -17q-62 -3 -121 -3q-47 0 -92 2q0 39 3 85t9 87h-4 q-41 -86 -123 -139.5t-199 -53.5q-186 0 -278 129.5t-92 348.5zM346 483q0 -288 173 -288h1q51 0 92 27.5t69 73.5t43 106.5t15 125.5v285q-35 8 -68.5 12t-68.5 4q-113 0 -184.5 -78.5t-71.5 -267.5z" />
<glyph unicode="e" horiz-adv-x="1052" d="M70 500q0 117 31.5 216t92 170.5t149.5 112.5t204 41q111 0 191.5 -35.5t133 -97t78 -144.5t25.5 -177q0 -27 -2 -56.5t-6 -62.5h-631q-2 -283 280 -283q76 0 154 16.5t143 47.5l25 -203q-82 -33 -175 -49t-190 -16q-244 0 -373.5 124.5t-129.5 395.5zM340 645h375v15 q0 86 -44 134q-48 54 -132 54q-82 0 -135.5 -55.5t-63.5 -147.5z" />
<glyph unicode="f" horiz-adv-x="724" d="M16 815v203h179v82q0 209 97 310t308 101q41 0 83 -3t83 -13l-18 -215q-31 10 -65 14t-62 4q-86 0 -126 -46t-40 -148v-86h237v-203h-237v-815h-260v815h-179z" />
<glyph unicode="g" horiz-adv-x="1136" d="M72 455q0 129 35.5 235.5t106.5 183t174.5 119.5t238.5 43q109 0 198.5 -8t173.5 -22v-1039q0 -90 -24.5 -175t-87 -152.5t-172 -108.5t-277.5 -41q-86 0 -165.5 11.5t-145.5 27.5l20 244q68 -27 150 -43.5t154 -16.5q145 0 218.5 56.5t73.5 197.5v53q0 37 1 72t10 76h-4 q-41 -88 -120 -138t-181 -50q-184 0 -280.5 120.5t-96.5 354.5zM346 483q0 -286 173 -286h1q51 0 92 27.5t69 73.5t43 106.5t15 127.5v281q-59 14 -137 14q-113 0 -184.5 -77.5t-71.5 -266.5z" />
<glyph unicode="h" horiz-adv-x="1179" d="M-27 1315v164q98 12 212 17q63 3 127 3q51 0 102 -2v-438q0 -47 -4 -104.5t-15 -102.5l2 -2q45 86 130 138t206 52q86 0 144.5 -25.5t93.5 -70.5t50 -103.5t15 -125.5v-715h-260v651q0 80 -26.5 125t-100.5 45q-49 0 -92 -26.5t-74.5 -71.5t-50 -104.5t-18.5 -126.5v-492 h-262v1294q-37 6 -85.5 11.5t-93.5 9.5z" />
<glyph unicode="i" horiz-adv-x="610" d="M31 838v163q99 11 211 17q65 3 131 4q48 0 96 -2v-1020h-260v817q-37 6 -85 11.5t-93 9.5zM176 1309q0 33 13.5 61.5t35 50t51 33.5t62.5 12q68 0 116 -45.5t48 -111.5t-48 -113t-116 -47q-66 0 -114 47t-48 113z" />
<glyph unicode="j" horiz-adv-x="614" d="M-68 -487l17 223q29 -10 61.5 -17.5t61.5 -7.5q80 0 109.5 41t29.5 146v919q-37 6 -85 11.5t-93 9.5v163q98 12 211 17q66 4 132 4q49 0 97 -2v-1096q0 -102 -20.5 -183t-66.5 -136.5t-122 -84t-186 -28.5q-35 0 -74 5t-72 16zM178 1309q0 66 48 111.5t116 45.5 q66 0 114 -45.5t48 -111.5t-48 -113t-114 -47q-68 0 -116 47t-48 113z" />
<glyph unicode="k" horiz-adv-x="1079" d="M-27 1315v164q98 12 212 17q63 3 127 3q51 0 102 -2v-903l297 424h319l-358 -465l385 -553h-328l-315 504v-504h-262v1294q-37 6 -85.5 11.5t-93.5 9.5z" />
<glyph unicode="l" horiz-adv-x="555" d="M-27 1315v164q98 12 212 17q63 3 127 3q51 0 102 -2v-1497h-262v1294q-37 6 -85.5 11.5t-93.5 9.5z" />
<glyph unicode="m" horiz-adv-x="1839" d="M31 838v163q97 11 209 17q65 3 127 4q45 0 88 -2q0 -37 -3 -88t-10 -96h2q47 94 134.5 149t201.5 55q68 0 117 -18t82 -47t52.5 -66t29.5 -73q18 37 48 73.5t71 66.5t94 47t119 17q147 0 226 -83t79 -257v-700h-262v645q0 82 -25 129t-96 47q-43 0 -85 -24.5t-75 -68.5 t-53.5 -105.5t-20.5 -135.5v-487h-258v645q0 76 -22.5 126t-98.5 50q-45 0 -87 -25.5t-74.5 -69.5t-52 -105.5t-19.5 -133.5v-487h-260v817q-37 6 -85 11.5t-93 9.5z" />
<glyph unicode="n" horiz-adv-x="1234" d="M31 838v163q98 11 209 17q64 3 126 4q45 0 89 -2q0 -37 -3 -89t-12 -93l2 -2q47 92 134.5 148t211.5 56q86 0 144.5 -25.5t93.5 -70.5t50.5 -103.5t15.5 -125.5v-715h-261v651q0 80 -26.5 125t-97.5 45q-49 0 -93.5 -26.5t-76 -71.5t-50 -104.5t-18.5 -126.5v-492h-260 v817q-37 6 -85 11.5t-93 9.5z" />
<glyph unicode="o" horiz-adv-x="1132" d="M68 492q0 119 37.5 219t106.5 172.5t164 113.5t212 41q217 0 346 -124t129 -386q0 -121 -38 -221t-107.5 -173t-165 -113.5t-209.5 -40.5q-109 0 -197 28.5t-149.5 91t-95 159.5t-33.5 233zM338 518q0 -315 227 -315q98 0 163 77.5t65 233.5q0 147 -53.5 225t-170.5 78 q-43 0 -85 -17.5t-74.5 -54t-52 -93t-19.5 -134.5z" />
<glyph unicode="p" horiz-adv-x="1210" d="M31 838v163q98 12 207 17q64 4 125 4q45 0 88 -2q0 -39 -2.5 -85t-8.5 -87h4q43 90 123 140t197 50q182 0 277.5 -123.5t95.5 -351.5q0 -133 -35 -239.5t-102.5 -182t-168 -115.5t-231.5 -40q-37 0 -67.5 2t-63.5 6v-488h-260v1311q-37 6 -85 11.5t-93 9.5zM469 207 q61 -18 137 -19q113 0 184.5 79.5t71.5 267.5q0 288 -173 288h-1q-51 0 -92 -27.5t-68.5 -73.5t-43 -106.5t-15.5 -126.5v-282z" />
<glyph unicode="q" horiz-adv-x="1144" d="M74 455q0 129 35.5 235.5t106.5 183t174.5 119.5t238.5 43q109 0 199 -8t173 -22v-1299q37 -6 85.5 -11t93.5 -9v-164q-98 -12 -212 -17q-66 -4 -132 -4q-47 0 -95 2v463q0 41 2 94.5t13 102.5l-4 2q-41 -88 -120 -138.5t-181 -50.5q-184 0 -280.5 121t-96.5 357z M348 483q0 -288 171 -288h1q51 0 92 27.5t70 74.5t44 107.5t15 127.5v283q-33 6 -65.5 10t-71.5 4q-113 0 -184.5 -78.5t-71.5 -267.5z" />
<glyph unicode="r" horiz-adv-x="792" d="M31 838v163q98 11 209 17q64 3 126 4q45 0 89 -2q0 -41 -4.5 -97.5t-14.5 -109.5h4q18 49 46 92t68 75t92 50q37 12 81 12q18 0 37 -2l-12 -258q-34 7 -63 7q-220 0 -220 -373v-416h-260v817q-37 6 -85 11.5t-93 9.5z" />
<glyph unicode="s" horiz-adv-x="854" d="M84 715q0 68 27.5 126t81 103t134.5 70.5t189 25.5q45 0 92 -5t94 -13l-8 -207q-43 12 -92 19.5t-96 7.5q-78 0 -115 -29t-37 -76q0 -41 31 -65.5t78 -44t100 -40t100.5 -53t78 -85t30.5 -134.5q0 -76 -31.5 -137t-91 -105t-143.5 -68.5t-189 -24.5q-55 0 -109 5t-104 13 l7 215q47 -12 103 -21.5t116 -9.5q76 0 121 29t45 80q0 45 -31 69.5t-76 43t-99 37t-99.5 50t-76 85t-30.5 139.5z" />
<glyph unicode="t" horiz-adv-x="768" d="M12 815v203h174v313l263 70v-383h247v-203h-247v-446q0 -98 26.5 -133t93.5 -35q68 0 127 16v-211q-49 -12 -104 -19t-109 -7q-84 0 -141 16t-91 54t-48.5 98.5t-14.5 150.5v516h-176z" />
<glyph unicode="u" horiz-adv-x="1286" d="M27 838v163q103 11 217 17q66 3 130 4q46 0 91 -2v-653q0 -80 26.5 -125t98.5 -45q49 0 93 26.5t76 71.5t50 104.5t18 126.5v492h260v-817q37 -6 85.5 -11.5t93.5 -9.5v-164q-98 -12 -209 -17q-62 -3 -121 -3q-47 0 -92 2q0 35 2 87t10 95l-4 2q-45 -92 -132 -148.5 t-212 -56.5q-86 0 -145.5 26t-94.5 71t-50 103.5t-15 125.5v514q-37 6 -84 11.5t-92 9.5z" />
<glyph unicode="v" horiz-adv-x="1036" d="M6 1018h287l162 -459q39 -113 67 -225h4q12 53 27.5 108.5t34.5 108.5l164 467h278l-381 -1018h-266z" />
<glyph unicode="w" horiz-adv-x="1630" d="M18 1018h287l109 -385q20 -76 40.5 -153t39.5 -154h2q16 86 33.5 156.5t39.5 138.5l123 397h252l125 -385q29 -88 47.5 -160t34.5 -147h4q16 78 32.5 148.5t39.5 146.5l114 397h269l-320 -1018h-284l-148 453q-16 53 -29.5 107t-27.5 120h-2q-16 -72 -32.5 -132.5 t-37.5 -123.5l-129 -424h-270z" />
<glyph unicode="x" horiz-adv-x="1081" d="M23 0l350 514l-330 504h313l197 -336l199 336h288l-317 -502l336 -516h-330l-197 342l-196 -342h-313z" />
<glyph unicode="y" horiz-adv-x="1028" d="M0 -492l16 226q35 -10 69 -16.5t71 -6.5q33 0 59.5 8.5t51 30t45 58t40.5 94.5l35 98l-375 1018h291l137 -389q23 -66 43.5 -138.5t36.5 -142.5h2q8 35 20.5 77t26 85t26.5 85t26 77l120 346h281l-418 -1112q-45 -119 -90 -199t-98.5 -127t-119 -67.5t-153.5 -20.5 q-35 0 -72.5 4t-70.5 12z" />
<glyph unicode="z" horiz-adv-x="921" d="M92 0v186l410 602q-29 -2 -86.5 -3t-130.5 -1h-181v234h713v-187l-401 -593q16 0 43.5 1t59.5 1h65.5h62.5h178v-240h-733z" />
<glyph unicode="{" horiz-adv-x="741" d="M55 543v196q51 2 90 13.5t65 36t38 65.5t12 107v178q0 223 85 337.5t288 114.5h43v-207q-49 0 -83 -10t-53.5 -36.5t-27.5 -73.5t-8 -121v-176q0 -164 -51.5 -236t-137.5 -88v-2q86 -14 137.5 -91t51.5 -241v-274q0 -74 8 -122t27.5 -74.5t53.5 -37t83 -10.5v-211h-43 q-201 0 -287 108.5t-86 348.5v276q0 127 -51 175.5t-154 54.5z" />
<glyph unicode="|" horiz-adv-x="565" d="M174 -512v2048h209v-2048h-209z" />
<glyph unicode="}" horiz-adv-x="737" d="M72 -209q49 0 82.5 10.5t54 37t29 74.5t8.5 122v274q0 164 51 241t137 91v2q-88 12 -138 85t-50 233v182q0 74 -8.5 121t-29 73.5t-54 36.5t-82.5 10v207h45q203 0 286.5 -114.5t83.5 -337.5v-172q0 -68 12.5 -110t38 -67.5t63.5 -37t91 -13.5v-196q-102 -6 -153.5 -54.5 t-51.5 -175.5v-276q0 -240 -86 -348.5t-284 -108.5h-45v211z" />
<glyph unicode="~" horiz-adv-x="1173" d="M80 614q53 47 127 83t170 36q72 0 126 -18.5t100 -40t91 -39t101 -17.5q55 0 109 26t104 71l82 -189q-53 -63 -131 -100t-171 -37q-68 0 -124 17.5t-106 39t-99 40t-103 18.5q-63 0 -113 -26.5t-83 -57.5z" />
<glyph unicode="&#xa1;" horiz-adv-x="622" d="M143 885q0 66 46.5 110.5t113.5 44.5q68 0 114 -44.5t46 -110.5t-46 -110t-114 -44t-114 44t-46 110zM158 -449l28 1084h226l32 -1084h-286z" />
<glyph unicode="&#xa2;" horiz-adv-x="929" d="M82 551q0 96 25.5 180t73.5 150.5t118 110.5t158 61v190h196v-176q43 -4 89 -11t94 -24l-25 -221q-86 43 -197 43q-121 0 -191.5 -74.5t-70.5 -214.5q0 -59 14.5 -110.5t45 -88t80 -57t118.5 -20.5q59 0 111.5 14t97.5 37l19 -227q-41 -16 -87 -27.5t-98 -15.5v-209h-196 v211q-186 23 -280.5 149.5t-94.5 329.5z" />
<glyph unicode="&#xa3;" horiz-adv-x="999" d="M109 0v201q100 59 155 124.5t55 174.5q0 16 -3 47t-9 96h-190v201h170q-6 51 -14.5 110.5t-8.5 106.5q0 205 99.5 297t293.5 92q41 0 89.5 -4t89.5 -12l-17 -215q-37 8 -69.5 12t-63.5 4q-158 0 -158 -172q0 -41 6.5 -98.5t14.5 -120.5h258v-201h-240q4 -29 6 -57.5 t2 -53.5q0 -102 -36.5 -173.5t-108.5 -137.5q33 4 72 5t78 1h307v-227h-778z" />
<glyph unicode="&#xa4;" horiz-adv-x="1136" d="M72 -217q0 80 46 147.5t109 98.5q-47 23 -73.5 62.5t-26.5 92.5q0 59 33 108.5t86 72.5q-72 39 -111 107.5t-39 172.5q0 80 30 152.5t88 126t144 85t199 31.5q49 0 93 -6t85 -16h344v-205h-137q23 -23 37 -57.5t14 -77.5q0 -168 -112.5 -270.5t-335.5 -102.5 q-23 0 -46.5 2t-45.5 6q-25 -10 -37.5 -28.5t-12.5 -36.5q0 -35 34 -49.5t124 -14.5h158q166 0 258 -76t92 -223q0 -82 -40 -155.5t-113.5 -129t-177 -87t-230.5 -31.5q-205 0 -320.5 75.5t-115.5 225.5zM330 -168q0 -72 59.5 -110.5t157.5 -38.5q129 0 195.5 47.5 t66.5 119.5q0 55 -38 91t-124 36h-178h-47q-45 -25 -68.5 -63.5t-23.5 -81.5zM346 666q0 -86 51.5 -134.5t149.5 -48.5q90 0 143 47.5t53 133.5t-50 136t-146 50q-94 0 -147.5 -51t-53.5 -133z" />
<glyph unicode="&#xa5;" horiz-adv-x="1230" d="M45 1382h291l182 -376q31 -63 54.5 -121t41.5 -111h4q23 63 51.5 128t61.5 130l178 350h281l-381 -749h254v-166h-318v-119h318v-168h-318v-180h-264v180h-317v168h317v119h-317v166h256z" />
<glyph unicode="&#xa7;" horiz-adv-x="1044" d="M121 690q0 92 40 169t101 124q-63 82 -63 199q0 66 24.5 128t77.5 110t136 78t202 30q41 0 80 -3t69 -12l-14 -219q-68 18 -141 19q-82 0 -119 -32t-37 -91q0 -45 33 -88t82 -91t106.5 -101.5t106.5 -116t82 -137t33 -162.5q0 -90 -41 -167t-101 -124q29 -37 48.5 -90.5 t19.5 -116.5q0 -59 -24.5 -120.5t-80 -111t-143.5 -81t-215 -31.5q-37 0 -83 5t-81 11l17 228q35 -10 74.5 -17.5t78.5 -7.5q96 0 136 39t40 92q0 47 -32.5 91t-82 90t-107.5 98.5t-107.5 113t-82 133t-32.5 162.5zM358 723q0 -41 15.5 -79t49.5 -82t86 -98t126 -124 q23 18 36 52t13 69q0 49 -22.5 92t-60.5 88t-88 94t-105 111q-49 -39 -50 -123z" />
<glyph unicode="&#xa8;" horiz-adv-x="1118" d="M193 1327q0 59 40.5 100t100.5 41q59 0 100 -41t41 -100t-41 -100t-100 -41t-100 41t-41 100zM606 1327q0 59 41 100t101 41q59 0 100 -41t41 -100t-41 -100t-100 -41t-100.5 41t-41.5 100z" />
<glyph unicode="&#xa9;" horiz-adv-x="1560" d="M78 682q0 145 55 272t150.5 222.5t222.5 150.5t272 55t272.5 -54t222.5 -149.5t150.5 -222.5t55.5 -272t-55.5 -272t-150.5 -222.5t-222 -150.5t-273 -55q-147 0 -275 54t-222.5 149.5t-148.5 222.5t-54 272zM274 684q0 -104 40 -196.5t107.5 -161t160 -108.5t196.5 -40 t195.5 40t160 107.5t107.5 160t39 196.5t-39 196.5t-107.5 161t-160 108.5t-195.5 40t-196.5 -40t-160 -107.5t-107.5 -160t-40 -196.5zM444 676q0 74 20.5 141.5t64.5 118.5t113 82t163 31q51 0 92 -8.5t76 -22.5l-29 -174q-23 16 -57.5 25.5t-71.5 9.5q-82 0 -117.5 -53.5 t-35.5 -145.5q0 -178 143 -178q39 0 74.5 6t68.5 22l35 -168q-88 -41 -209 -40q-158 0 -244 96t-86 258z" />
<glyph unicode="&#xaa;" horiz-adv-x="870" d="M80 846q0 68 32.5 118t89 82.5t133.5 48t163 15.5v31q0 16 -4.5 33.5t-16.5 31t-36.5 22.5t-63.5 9q-61 0 -118.5 -15.5t-113.5 -39.5l-18 176q61 20 132 32.5t151 12.5q86 0 143 -19.5t92 -53.5t50.5 -77t15.5 -88v-64t-1 -98.5t-1 -98.5v-64q31 -4 67.5 -7.5t65.5 -7.5 v-145q-78 -10 -167 -14t-167 0q0 23 1 49t7 51l-4 2q-23 -51 -80 -86t-127 -35q-113 0 -169 56.5t-56 142.5zM287 874q0 -29 19.5 -47t53.5 -18q35 0 60.5 15.5t43 38t26 48t8.5 45.5v21q-111 0 -161 -24.5t-50 -78.5z" />
<glyph unicode="&#xab;" horiz-adv-x="1093" d="M86 508l225 401l203 -94l-178 -307l180 -299l-211 -98zM530 508l248 393l197 -98l-193 -295l195 -289l-205 -98z" />
<glyph unicode="&#xac;" horiz-adv-x="1142" d="M70 430v213h966v-518h-231v305h-735z" />
<glyph unicode="&#xad;" horiz-adv-x="684" d="M90 416v209h504v-209h-504z" />
<glyph unicode="&#xae;" horiz-adv-x="1155" d="M98 1090q0 98 38 184t102.5 149.5t153 100.5t186.5 37q100 0 187 -36t151.5 -99.5t102.5 -149.5t38 -186q0 -98 -38 -184.5t-103.5 -151t-152.5 -101.5t-185 -37q-100 0 -188.5 37t-153 100.5t-101.5 149.5t-37 187zM256 1092q0 -68 25.5 -126.5t68.5 -103.5t101.5 -70.5 t126.5 -25.5q66 0 124 25.5t101 68.5t68.5 101.5t25.5 125.5q0 66 -25.5 125.5t-68.5 103.5t-101 70.5t-124 26.5q-68 0 -126.5 -25.5t-101.5 -69.5t-68.5 -102.5t-25.5 -123.5zM410 862v457h190q86 0 124 -35t38 -92q0 -53 -25.5 -85t-66.5 -44q14 -14 35 -55l67 -146h-147 l-78 174h-15v-174h-122zM532 1120h23q37 0 54.5 17.5t17.5 40.5q0 47 -62 47h-33v-105z" />
<glyph unicode="&#xaf;" horiz-adv-x="704" d="M119 1229v190h444v-190h-444z" />
<glyph unicode="&#xb0;" horiz-adv-x="794" d="M86 1231q0 68 26.5 122t70.5 91t99.5 56.5t112.5 19.5q80 0 137.5 -22.5t93.5 -61.5t53 -90.5t17 -108.5q0 -72 -26.5 -126t-70.5 -91t-101.5 -55.5t-116.5 -18.5q-137 0 -216 76t-79 209zM281 1233q0 -57 30.5 -89t79.5 -32q51 0 81 36t30 89q0 41 -25.5 80t-83.5 39 q-49 0 -80.5 -34t-31.5 -89z" />
<glyph unicode="&#xb1;" horiz-adv-x="1206" d="M98 545v215h381v379h248v-379h381v-215h-381v-383h-248v383h-381zM109 57h989v-219h-989v219z" />
<glyph unicode="&#xb4;" horiz-adv-x="804" d="M184 1303l359 225l108 -180l-377 -195z" />
<glyph unicode="&#xb5;" horiz-adv-x="1251" d="M152 -494v1512h260v-621q0 -115 49 -159.5t135 -44.5q55 0 99 24.5t77 69.5t50.5 105.5t17.5 133.5v492h260v-1018h-248q0 31 2 78t8 92h-2q-12 -31 -34.5 -63.5t-57.5 -59.5t-82 -44t-111 -17q-57 0 -99 15t-64 38l-4 -2q4 -29 4 -80v-121v-330h-260z" />
<glyph unicode="&#xb6;" horiz-adv-x="1218" d="M113 930q0 102 35.5 186t99 143.5t152.5 91t198 31.5v-909q-127 0 -218 36t-150.5 98.5t-88 146.5t-28.5 176zM614 12h144v1370h356v-208h-133v-1371h-367v209z" />
<glyph unicode="&#xb7;" horiz-adv-x="550" d="M106 588q0 70 49 120t121 50q70 0 120 -50.5t50 -119.5q0 -72 -50 -121t-120 -49q-72 0 -121 49t-49 121z" />
<glyph unicode="&#xb8;" horiz-adv-x="819" d="M252 -410q96 63 114.5 141.5t-30.5 164.5h239q27 -53 36.5 -108.5t-11 -108t-75 -100.5t-150.5 -89z" />
<glyph unicode="&#xba;" horiz-adv-x="872" d="M80 1018q0 90 28.5 161.5t78 122t116 77t143.5 26.5q74 0 136.5 -19.5t108.5 -63.5t71.5 -114t25.5 -170q0 -90 -28.5 -161.5t-78.5 -121.5t-118.5 -78t-148.5 -28q-72 0 -132.5 19.5t-105.5 63.5t-70.5 115t-25.5 171zM289 1030q0 -39 7 -75.5t23.5 -64.5t43 -44.5 t65.5 -16.5q59 0 103 45t44 154q0 86 -31.5 140.5t-109.5 54.5q-27 0 -53.5 -10.5t-47 -34t-32.5 -60.5t-12 -88z" />
<glyph unicode="&#xbb;" horiz-adv-x="1093" d="M117 801l205 100l241 -389l-248 -391l-196 96l192 295zM578 813l210 96l220 -397l-226 -401l-202 96l178 305z" />
<glyph unicode="&#xbf;" horiz-adv-x="882" d="M96 -35q0 82 30 141.5t72 106.5t88 88t79.5 88t46 105.5t-14.5 140.5h254q35 -96 29 -168t-37 -127t-75 -98t-86 -82t-71.5 -78t-29.5 -88q0 -92 105.5 -150.5t285.5 -64.5l-33 -238q-164 6 -284.5 43t-200.5 95.5t-119 132t-39 153.5zM356 885q0 66 46.5 110.5 t115.5 44.5q68 0 114 -44.5t46 -110.5t-46 -110t-114 -44q-70 0 -116 44t-46 110z" />
<glyph unicode="&#xc0;" horiz-adv-x="1282" d="M2 0l483 1382h301l494 -1382h-295l-96 283h-522l-97 -283h-268zM307 1665l113 182l356 -225l-92 -152zM434 494h385l-129 362q-20 57 -35.5 109.5t-27.5 111.5h-2q-25 -111 -66 -231z" />
<glyph unicode="&#xc1;" horiz-adv-x="1282" d="M2 0l483 1382h301l494 -1382h-295l-96 283h-522l-97 -283h-268zM434 494h385l-129 362q-20 57 -35.5 109.5t-27.5 111.5h-2q-25 -111 -66 -231zM448 1622l359 225l108 -180l-377 -195z" />
<glyph unicode="&#xc2;" horiz-adv-x="1282" d="M2 0l483 1382h301l494 -1382h-295l-96 283h-522l-97 -283h-268zM330 1636l307 180l314 -178l-84 -154l-232 129l-227 -129zM434 494h385l-129 362q-20 57 -35.5 109.5t-27.5 111.5h-2q-25 -111 -66 -231z" />
<glyph unicode="&#xc3;" horiz-adv-x="1282" d="M2 0l483 1382h301l494 -1382h-295l-96 283h-522l-97 -283h-268zM276 1705q43 39 97.5 64t113.5 25q55 0 93 -15.5t72 -35t66.5 -35t77.5 -15.5q43 0 81 19.5t65 46.5l51 -174q-35 -31 -93.5 -58.5t-117.5 -27.5t-98 15t-72 34.5t-65.5 35t-79.5 15.5q-39 0 -75 -19.5 t-65 -48.5zM434 494h385l-129 362q-20 57 -35.5 109.5t-27.5 111.5h-2q-25 -111 -66 -231z" />
<glyph unicode="&#xc4;" horiz-adv-x="1282" d="M2 0l483 1382h301l494 -1382h-295l-96 283h-522l-97 -283h-268zM285 1628q0 59 40.5 100t100.5 41q59 0 100 -41t41 -100t-41 -100t-100 -41t-100 41t-41 100zM434 494h385l-129 362q-20 57 -35.5 109.5t-27.5 111.5h-2q-25 -111 -66 -231zM698 1628q0 59 41 100t101 41 q59 0 100 -41t41 -100t-41 -100t-100 -41t-100.5 41t-41.5 100z" />
<glyph unicode="&#xc5;" horiz-adv-x="1282" d="M2 0l483 1382h301l494 -1382h-295l-96 283h-522l-97 -283h-268zM377 1583q0 53 20.5 99t55 79t83 51.5t101.5 18.5q55 0 102 -18.5t82 -51.5t55.5 -79t20.5 -99t-20.5 -98t-56.5 -79t-83 -53.5t-100 -19.5q-55 0 -102.5 18.5t-82 52.5t-55 79t-20.5 100zM434 494h385 l-129 362q-20 57 -35.5 109.5t-27.5 111.5h-2q-25 -111 -66 -231zM528 1583q0 -45 32 -77t77 -32t75.5 32t30.5 77t-30.5 77t-75.5 32t-77 -32t-32 -77z" />
<glyph unicode="&#xc6;" horiz-adv-x="1607" d="M-78 0l684 1382h873v-223h-478v-340h461v-217h-461v-375h492v-227h-748v305h-403l-147 -305h-273zM432 514h313v645h-4q-29 -72 -57.5 -138.5t-69.5 -150.5z" />
<glyph unicode="&#xc7;" horiz-adv-x="1159" d="M78 647q0 164 43 301t129 235.5t216 154t304 55.5q74 0 149.5 -9.5t143.5 -27.5l-29 -242q-139 41 -278 41q-96 0 -169 -35t-121 -96t-71.5 -146t-23.5 -186q0 -227 96 -348t307 -121q63 0 139 16.5t129 41.5l31 -238q-78 -29 -168 -45t-188 -16q-182 0 -304 55 t-197 148.5t-106.5 213t-31.5 248.5zM469 -410q96 63 114.5 141.5t-30.5 164.5h239q27 -53 36.5 -108.5t-11 -108t-75 -100.5t-150.5 -89z" />
<glyph unicode="&#xc8;" horiz-adv-x="1009" d="M143 0v1382h752v-223h-485v-340h460v-217h-460v-375h485v-227h-752zM223 1665l113 182l356 -225l-92 -152z" />
<glyph unicode="&#xc9;" horiz-adv-x="1009" d="M143 0v1382h752v-223h-485v-340h460v-217h-460v-375h485v-227h-752zM334 1622l359 225l108 -180l-377 -195z" />
<glyph unicode="&#xca;" horiz-adv-x="1009" d="M143 0v1382h752v-223h-485v-340h460v-217h-460v-375h485v-227h-752zM207 1636l307 180l314 -178l-84 -154l-232 129l-227 -129z" />
<glyph unicode="&#xcb;" horiz-adv-x="1009" d="M143 0v1382h752v-223h-485v-340h460v-217h-460v-375h485v-227h-752zM168 1628q0 59 40.5 100t100.5 41q59 0 100 -41t41 -100t-41 -100t-100 -41t-100 41t-41 100zM581 1628q0 59 41 100t101 41q59 0 100 -41t41 -100t-41 -100t-100 -41t-100.5 41t-41.5 100z" />
<glyph unicode="&#xcc;" horiz-adv-x="552" d="M8 1665l113 182l356 -225l-92 -152zM143 0v1382h267v-1382h-267z" />
<glyph unicode="&#xcd;" horiz-adv-x="552" d="M63 1622l359 223l108 -178l-376 -194zM143 0v1382h267v-1382h-267z" />
<glyph unicode="&#xce;" horiz-adv-x="552" d="M-29 1634l308 183l313 -179l-82 -155l-234 131l-227 -131zM143 0v1382h267v-1382h-267z" />
<glyph unicode="&#xcf;" horiz-adv-x="552" d="M-74 1630q0 59 41 100.5t101 41.5q59 0 100 -41.5t41 -100.5t-41 -100t-100 -41t-100.5 41t-41.5 100zM143 0v1382h267v-1382h-267zM340 1630q0 59 41 100.5t100 41.5t100.5 -41.5t41.5 -100.5t-41 -100t-101 -41q-59 0 -100 41t-41 100z" />
<glyph unicode="&#xd1;" horiz-adv-x="1431" d="M143 0v1382h346l385 -659q47 -80 89.5 -164t80.5 -162q-4 51 -7 121t-4 145.5t-2 150.5t-1 138v430h258v-1382h-344l-405 698q-45 78 -82 154t-68 143q2 -45 5 -105.5t4 -128t2 -137t1 -130.5v-494h-258zM348 1705q43 39 97.5 64t113.5 25q55 0 93 -15.5t72 -35t66.5 -35 t77.5 -15.5q43 0 81 19.5t65 46.5l51 -174q-35 -31 -93.5 -58.5t-117.5 -27.5t-98 15t-72 34.5t-65.5 35t-79.5 15.5q-39 0 -75 -19.5t-65 -48.5z" />
<glyph unicode="&#xd2;" d="M68 674q0 172 53 307t145 229.5t215 144.5t262 50q137 0 253 -42t200 -128t130 -216t46 -308q0 -172 -53 -307.5t-144.5 -230.5t-214 -145.5t-264.5 -50.5q-158 0 -276.5 48.5t-196.5 139.5t-116.5 220t-38.5 289zM352 702q0 -111 21.5 -199.5t66.5 -151t114 -97.5 t161 -35q68 0 134 26.5t119.5 84t86 146.5t32.5 214q0 231 -94 353t-274 122q-72 0 -138.5 -28.5t-116.5 -86t-81 -144.5t-31 -204zM442 1665l113 182l356 -225l-92 -152z" />
<glyph unicode="&#xd3;" d="M68 674q0 172 53 307t145 229.5t215 144.5t262 50q137 0 253 -42t200 -128t130 -216t46 -308q0 -172 -53 -307.5t-144.5 -230.5t-214 -145.5t-264.5 -50.5q-158 0 -276.5 48.5t-196.5 139.5t-116.5 220t-38.5 289zM352 702q0 -111 21.5 -199.5t66.5 -151t114 -97.5 t161 -35q68 0 134 26.5t119.5 84t86 146.5t32.5 214q0 231 -94 353t-274 122q-72 0 -138.5 -28.5t-116.5 -86t-81 -144.5t-31 -204zM575 1622l359 225l108 -180l-377 -195z" />
<glyph unicode="&#xd4;" d="M68 674q0 172 53 307t145 229.5t215 144.5t262 50q137 0 253 -42t200 -128t130 -216t46 -308q0 -172 -53 -307.5t-144.5 -230.5t-214 -145.5t-264.5 -50.5q-158 0 -276.5 48.5t-196.5 139.5t-116.5 220t-38.5 289zM352 702q0 -111 21.5 -199.5t66.5 -151t114 -97.5 t161 -35q68 0 134 26.5t119.5 84t86 146.5t32.5 214q0 231 -94 353t-274 122q-72 0 -138.5 -28.5t-116.5 -86t-81 -144.5t-31 -204zM428 1636l307 180l314 -178l-84 -154l-232 129l-227 -129z" />
<glyph unicode="&#xd5;" d="M68 674q0 172 53 307t145 229.5t215 144.5t262 50q137 0 253 -42t200 -128t130 -216t46 -308q0 -172 -53 -307.5t-144.5 -230.5t-214 -145.5t-264.5 -50.5q-158 0 -276.5 48.5t-196.5 139.5t-116.5 220t-38.5 289zM352 702q0 -111 21.5 -199.5t66.5 -151t114 -97.5 t161 -35q68 0 134 26.5t119.5 84t86 146.5t32.5 214q0 231 -94 353t-274 122q-72 0 -138.5 -28.5t-116.5 -86t-81 -144.5t-31 -204zM368 1712q43 39 97.5 64t113.5 25q55 0 93 -15.5t72 -35t66.5 -35t77.5 -15.5q43 0 81 19.5t65 46.5l51 -174q-35 -31 -93.5 -58.5 t-117.5 -27.5t-98 15t-72 34.5t-65.5 35t-79.5 15.5q-39 0 -75 -19.5t-65 -48.5z" />
<glyph unicode="&#xd6;" d="M68 674q0 172 53 307t145 229.5t215 144.5t262 50q137 0 253 -42t200 -128t130 -216t46 -308q0 -172 -53 -307.5t-144.5 -230.5t-214 -145.5t-264.5 -50.5q-158 0 -276.5 48.5t-196.5 139.5t-116.5 220t-38.5 289zM352 702q0 -111 21.5 -199.5t66.5 -151t114 -97.5 t161 -35q68 0 134 26.5t119.5 84t86 146.5t32.5 214q0 231 -94 353t-274 122q-72 0 -138.5 -28.5t-116.5 -86t-81 -144.5t-31 -204zM386 1628q0 59 40.5 100t100.5 41q59 0 100 -41t41 -100t-41 -100t-100 -41t-100 41t-41 100zM799 1628q0 59 41 100t101 41q59 0 100 -41 t41 -100t-41 -100t-100 -41t-100.5 41t-41.5 100z" />
<glyph unicode="&#xd8;" d="M68 676q0 172 51 307t140 229.5t212 143.5t264 49q29 0 56.5 -2t56.5 -6l67 192l193 -61l-66 -187q150 -70 236 -227.5t86 -413.5q0 -168 -51 -302t-141.5 -227t-212 -143.5t-263.5 -50.5q-35 0 -66.5 2.5t-60.5 8.5l-71 -203l-195 61l72 201q-160 80 -233.5 245 t-73.5 384zM338 696q0 -131 27.5 -229t99.5 -156l303 846q-29 4 -56.5 3t-60.5 -5q-63 -10 -120.5 -43t-100.5 -90t-67.5 -138t-24.5 -188zM647 219q25 -6 50.5 -7t50.5 1q70 6 132 37t109 88t76 143t29 203q0 135 -34 239.5t-106 157.5z" />
<glyph unicode="&#xd9;" horiz-adv-x="1394" d="M143 479v903h267v-886q0 -66 12 -120t45 -94t88 -61.5t141 -21.5q154 0 222.5 72.5t68.5 248.5v862h264v-845q0 -285 -149.5 -422.5t-423.5 -137.5q-164 0 -267.5 41t-163 111t-82 161t-22.5 189zM393 1665l113 182l356 -225l-92 -152z" />
<glyph unicode="&#xda;" horiz-adv-x="1394" d="M143 479v903h267v-886q0 -66 12 -120t45 -94t88 -61.5t141 -21.5q154 0 222.5 72.5t68.5 248.5v862h264v-845q0 -285 -149.5 -422.5t-423.5 -137.5q-164 0 -267.5 41t-163 111t-82 161t-22.5 189zM528 1622l359 225l108 -180l-377 -195z" />
<glyph unicode="&#xdb;" horiz-adv-x="1394" d="M143 479v903h267v-886q0 -66 12 -120t45 -94t88 -61.5t141 -21.5q154 0 222.5 72.5t68.5 248.5v862h264v-845q0 -285 -149.5 -422.5t-423.5 -137.5q-164 0 -267.5 41t-163 111t-82 161t-22.5 189zM387 1636l307 180l314 -178l-84 -154l-232 129l-227 -129z" />
<glyph unicode="&#xdc;" horiz-adv-x="1394" d="M143 479v903h267v-886q0 -66 12 -120t45 -94t88 -61.5t141 -21.5q154 0 222.5 72.5t68.5 248.5v862h264v-845q0 -285 -149.5 -422.5t-423.5 -137.5q-164 0 -267.5 41t-163 111t-82 161t-22.5 189zM330 1628q0 59 40.5 100t100.5 41q59 0 100 -41t41 -100t-41 -100 t-100 -41t-100 41t-41 100zM743 1628q0 59 41 100t101 41q59 0 100 -41t41 -100t-41 -100t-100 -41t-100.5 41t-41.5 100z" />
<glyph unicode="&#xdf;" horiz-adv-x="1243" d="M141 0v1012q0 135 40 231t107.5 155.5t157 87t189.5 27.5q94 0 171 -20t132 -60t85 -96.5t30 -128.5q0 -98 -38 -152.5t-83 -91t-83 -71.5t-38 -96q0 -43 27.5 -74t68.5 -57.5t88 -54t88 -66.5t69 -92t28 -131t-31 -141.5t-87 -108.5t-134 -70t-172 -25q-137 0 -217 29 l10 215q41 -18 92 -29.5t98 -11.5q92 0 131 35t39 80t-26.5 74.5t-67.5 55.5t-88 53.5t-88 64.5t-67.5 90t-26.5 133q0 90 36.5 143.5t81 94t81 80.5t36.5 106q0 59 -42 90t-113 31q-102 0 -162 -70t-60 -217v-1024h-262z" />
<glyph unicode="&#xe0;" horiz-adv-x="1130" d="M78 248q0 92 43 161.5t120.5 116.5t186.5 71t238 24v55q0 80 -44 121t-155 41q-70 0 -153 -21.5t-148 -58.5l-23 219q78 29 172.5 46t192.5 17q123 0 204 -23.5t129 -69.5t67.5 -111.5t19.5 -149.5v-485q37 -6 85 -11.5t93 -9.5v-164q-98 -12 -209 -17t-211 -1q0 45 2 89 t8 85l-2 2q-37 -86 -124 -140t-201 -54q-139 0 -215 72.5t-76 195.5zM264 1346l113 182l356 -225l-92 -152zM328 289q0 -49 31.5 -79t89.5 -30q49 0 89 21.5t68.5 55.5t44 78t15.5 91v25q-104 0 -170 -13.5t-103 -37t-51 -52.5t-14 -59z" />
<glyph unicode="&#xe1;" horiz-adv-x="1130" d="M78 248q0 92 43 161.5t120.5 116.5t186.5 71t238 24v55q0 80 -44 121t-155 41q-70 0 -153 -21.5t-148 -58.5l-23 219q78 29 172.5 46t192.5 17q123 0 204 -23.5t129 -69.5t67.5 -111.5t19.5 -149.5v-485q37 -6 85 -11.5t93 -9.5v-164q-98 -12 -209 -17t-211 -1q0 45 2 89 t8 85l-2 2q-37 -86 -124 -140t-201 -54q-139 0 -215 72.5t-76 195.5zM328 289q0 -49 31.5 -79t89.5 -30q49 0 89 21.5t68.5 55.5t44 78t15.5 91v25q-104 0 -170 -13.5t-103 -37t-51 -52.5t-14 -59zM362 1303l359 225l108 -180l-377 -195z" />
<glyph unicode="&#xe2;" horiz-adv-x="1130" d="M78 248q0 92 43 161.5t120.5 116.5t186.5 71t238 24v55q0 80 -44 121t-155 41q-70 0 -153 -21.5t-148 -58.5l-23 219q78 29 172.5 46t192.5 17q123 0 204 -23.5t129 -69.5t67.5 -111.5t19.5 -149.5v-485q37 -6 85 -11.5t93 -9.5v-164q-98 -12 -209 -17t-211 -1q0 45 2 89 t8 85l-2 2q-37 -86 -124 -140t-201 -54q-139 0 -215 72.5t-76 195.5zM229 1317l307 180l314 -178l-84 -154l-232 129l-227 -129zM328 289q0 -49 31.5 -79t89.5 -30q49 0 89 21.5t68.5 55.5t44 78t15.5 91v25q-104 0 -170 -13.5t-103 -37t-51 -52.5t-14 -59z" />
<glyph unicode="&#xe3;" horiz-adv-x="1130" d="M78 248q0 92 43 161.5t120.5 116.5t186.5 71t238 24v55q0 80 -44 121t-155 41q-70 0 -153 -21.5t-148 -58.5l-23 219q78 29 172.5 46t192.5 17q123 0 204 -23.5t129 -69.5t67.5 -111.5t19.5 -149.5v-485q37 -6 85 -11.5t93 -9.5v-164q-98 -12 -209 -17t-211 -1q0 45 2 89 t8 85l-2 2q-37 -86 -124 -140t-201 -54q-139 0 -215 72.5t-76 195.5zM170 1386q43 39 97.5 64t113.5 25q55 0 93 -15.5t72 -35t66.5 -35t77.5 -15.5q43 0 81 19.5t65 46.5l51 -174q-35 -31 -93.5 -58.5t-117.5 -27.5t-98 15t-72 34.5t-65.5 35t-79.5 15.5q-39 0 -75 -19.5 t-65 -48.5zM328 289q0 -49 31.5 -79t89.5 -30q49 0 89 21.5t68.5 55.5t44 78t15.5 91v25q-104 0 -170 -13.5t-103 -37t-51 -52.5t-14 -59z" />
<glyph unicode="&#xe4;" horiz-adv-x="1130" d="M78 248q0 92 43 161.5t120.5 116.5t186.5 71t238 24v55q0 80 -44 121t-155 41q-70 0 -153 -21.5t-148 -58.5l-23 219q78 29 172.5 46t192.5 17q123 0 204 -23.5t129 -69.5t67.5 -111.5t19.5 -149.5v-485q37 -6 85 -11.5t93 -9.5v-164q-98 -12 -209 -17t-211 -1q0 45 2 89 t8 85l-2 2q-37 -86 -124 -140t-201 -54q-139 0 -215 72.5t-76 195.5zM187 1327q0 59 40.5 100t100.5 41q59 0 100 -41t41 -100t-41 -100t-100 -41t-100 41t-41 100zM328 289q0 -49 31.5 -79t89.5 -30q49 0 89 21.5t68.5 55.5t44 78t15.5 91v25q-104 0 -170 -13.5t-103 -37 t-51 -52.5t-14 -59zM600 1327q0 59 41 100t101 41q59 0 100 -41t41 -100t-41 -100t-100 -41t-100.5 41t-41.5 100z" />
<glyph unicode="&#xe5;" horiz-adv-x="1130" d="M78 248q0 92 43 161.5t120.5 116.5t186.5 71t238 24v55q0 80 -44 121t-155 41q-70 0 -153 -21.5t-148 -58.5l-23 219q78 29 172.5 46t192.5 17q123 0 204 -23.5t129 -69.5t67.5 -111.5t19.5 -149.5v-485q37 -6 85 -11.5t93 -9.5v-164q-98 -12 -209 -17t-211 -1q0 45 2 89 t8 85l-2 2q-37 -86 -124 -140t-201 -54q-139 0 -215 72.5t-76 195.5zM273 1366q0 53 20.5 99t55 79t83 51.5t101.5 18.5q55 0 102 -18.5t82 -51.5t55.5 -79t20.5 -99t-20.5 -98t-56.5 -79t-83 -53.5t-100 -19.5q-55 0 -102.5 18.5t-82 52.5t-55 79t-20.5 100zM328 289 q0 -49 31.5 -79t89.5 -30q49 0 89 21.5t68.5 55.5t44 78t15.5 91v25q-104 0 -170 -13.5t-103 -37t-51 -52.5t-14 -59zM424 1366q0 -45 32 -77t77 -32t75.5 32t30.5 77t-30.5 77t-75.5 32t-77 -32t-32 -77z" />
<glyph unicode="&#xe6;" horiz-adv-x="1638" d="M78 248q0 92 43 161.5t120.5 116.5t186.5 71t238 24v53q0 80 -44 122t-155 42q-70 0 -153 -21.5t-148 -58.5l-23 219q78 29 171.5 47t191.5 18q100 0 187 -27.5t141 -96.5h2q45 53 121.5 87.5t175.5 34.5q111 0 191.5 -35.5t132.5 -97t78 -144.5t26 -177 q0 -27 -2.5 -56.5t-6.5 -62.5h-630q-2 -283 278 -283q78 0 156 16.5t143 47.5l25 -203q-82 -33 -175.5 -49t-189.5 -16q-164 0 -269.5 57t-154.5 149l-2 -2q-23 -39 -56.5 -75.5t-78.5 -65.5t-103.5 -46t-132.5 -17q-137 0 -210.5 72.5t-73.5 195.5zM328 289q0 -49 31.5 -79 t89.5 -30q49 0 89 21.5t68.5 55.5t44 78t15.5 91v25q-104 0 -170 -14.5t-103 -37t-51 -51.5t-14 -59zM926 645h374q4 96 -44 149.5t-132 53.5q-82 0 -135 -55.5t-63 -147.5z" />
<glyph unicode="&#xe7;" horiz-adv-x="870" d="M70 475q0 119 31.5 221.5t96 178t164 118.5t234.5 43q106 0 209 -28l-27 -228q-41 16 -88 26.5t-96 10.5q-125 0 -187.5 -85t-62.5 -230q0 -131 55.5 -212t186.5 -81q53 0 106 10t94 33l21 -223q-53 -20 -125 -33.5t-154 -13.5q-106 0 -191 28.5t-144.5 88t-91 153.5 t-31.5 223zM289 -410q96 63 114.5 141.5t-30.5 164.5h239q27 -53 36.5 -108.5t-11 -108t-75 -100.5t-150.5 -89z" />
<glyph unicode="&#xe8;" horiz-adv-x="1052" d="M70 500q0 117 31.5 216t92 170.5t149.5 112.5t204 41q111 0 191.5 -35.5t133 -97t78 -144.5t25.5 -177q0 -27 -2 -56.5t-6 -62.5h-631q-2 -283 280 -283q76 0 154 16.5t143 47.5l25 -203q-82 -33 -175 -49t-190 -16q-244 0 -373.5 124.5t-129.5 395.5zM266 1346l113 182 l356 -225l-92 -152zM340 645h375q4 96 -44 149.5t-132 53.5q-82 0 -135.5 -55.5t-63.5 -147.5z" />
<glyph unicode="&#xe9;" horiz-adv-x="1052" d="M70 500q0 117 31.5 216t92 170.5t149.5 112.5t204 41q111 0 191.5 -35.5t133 -97t78 -144.5t25.5 -177q0 -27 -2 -56.5t-6 -62.5h-631q-2 -283 280 -283q76 0 154 16.5t143 47.5l25 -203q-82 -33 -175 -49t-190 -16q-244 0 -373.5 124.5t-129.5 395.5zM340 645h375 q4 96 -44 149.5t-132 53.5q-82 0 -135.5 -55.5t-63.5 -147.5zM374 1303l359 225l108 -180l-377 -195z" />
<glyph unicode="&#xea;" horiz-adv-x="1052" d="M70 500q0 117 31.5 216t92 170.5t149.5 112.5t204 41q111 0 191.5 -35.5t133 -97t78 -144.5t25.5 -177q0 -27 -2 -56.5t-6 -62.5h-631q-2 -283 280 -283q76 0 154 16.5t143 47.5l25 -203q-82 -33 -175 -49t-190 -16q-244 0 -373.5 124.5t-129.5 395.5zM233 1317l307 180 l314 -178l-84 -154l-232 129l-227 -129zM340 645h375q4 96 -44 149.5t-132 53.5q-82 0 -135.5 -55.5t-63.5 -147.5z" />
<glyph unicode="&#xeb;" horiz-adv-x="1052" d="M70 500q0 117 31.5 216t92 170.5t149.5 112.5t204 41q111 0 191.5 -35.5t133 -97t78 -144.5t25.5 -177q0 -27 -2 -56.5t-6 -62.5h-631q-2 -283 280 -283q76 0 154 16.5t143 47.5l25 -203q-82 -33 -175 -49t-190 -16q-244 0 -373.5 124.5t-129.5 395.5zM199 1327 q0 59 40.5 100t100.5 41q59 0 100 -41t41 -100t-41 -100t-100 -41t-100 41t-41 100zM340 645h375q4 96 -44 149.5t-132 53.5q-82 0 -135.5 -55.5t-63.5 -147.5zM612 1327q0 59 41 100t101 41q59 0 100 -41t41 -100t-41 -100t-100 -41t-100.5 41t-41.5 100z" />
<glyph unicode="&#xec;" horiz-adv-x="610" d="M27 1346l110 182l357 -225l-93 -152zM31 838v163q98 12 210.5 17.5t227.5 1.5v-1020h-260v817q-37 6 -85 11.5t-93 9.5z" />
<glyph unicode="&#xed;" horiz-adv-x="610" d="M31 838v163q98 12 210.5 17.5t227.5 1.5v-1020h-260v817q-37 6 -85 11.5t-93 9.5zM88 1303l358 225l109 -180l-377 -195z" />
<glyph unicode="&#xee;" horiz-adv-x="610" d="M8 1317l307 180l314 -178l-84 -154l-232 129l-227 -129zM31 838v163q98 12 210.5 17.5t227.5 1.5v-1020h-260v817q-37 6 -85 11.5t-93 9.5z" />
<glyph unicode="&#xef;" horiz-adv-x="610" d="M-43 1327q0 59 41 100t100 41t100.5 -41t41.5 -100t-41 -100t-101 -41q-59 0 -100 41t-41 100zM31 838v163q98 12 210.5 17.5t227.5 1.5v-1020h-260v817q-37 6 -85 11.5t-93 9.5zM371 1327q0 59 41 100t100 41t100 -41t41 -100t-41 -100t-100 -41t-100 41t-41 100z" />
<glyph unicode="&#xf1;" horiz-adv-x="1234" d="M31 838v163q98 12 209 17.5t215 1.5q0 -37 -3 -89t-12 -93l2 -2q47 92 134.5 148t211.5 56q86 0 144.5 -25.5t93.5 -70.5t50.5 -103.5t15.5 -125.5v-715h-261v651q0 80 -26.5 125t-97.5 45q-49 0 -93.5 -26.5t-76 -71.5t-50 -104.5t-18.5 -126.5v-492h-260v817 q-37 6 -85 11.5t-93 9.5zM272 1386q43 39 97.5 64t113.5 25q55 0 93 -15.5t72 -35t66.5 -35t77.5 -15.5q43 0 81 19.5t65 46.5l51 -174q-35 -31 -93.5 -58.5t-117.5 -27.5t-98 15t-72 34.5t-65.5 35t-79.5 15.5q-39 0 -75 -19.5t-65 -48.5z" />
<glyph unicode="&#xf2;" horiz-adv-x="1132" d="M68 492q0 119 37.5 219t106.5 172.5t164 113.5t212 41q217 0 346 -124t129 -386q0 -121 -38 -221t-107.5 -173t-165 -113.5t-209.5 -40.5q-109 0 -197 28.5t-149.5 91t-95 159.5t-33.5 233zM299 1346l113 182l356 -225l-92 -152zM338 518q0 -315 227 -315q98 0 163 77.5 t65 233.5q0 147 -53.5 225t-170.5 78q-43 0 -85 -17.5t-74.5 -54t-52 -93t-19.5 -134.5z" />
<glyph unicode="&#xf3;" horiz-adv-x="1132" d="M68 492q0 119 37.5 219t106.5 172.5t164 113.5t212 41q217 0 346 -124t129 -386q0 -121 -38 -221t-107.5 -173t-165 -113.5t-209.5 -40.5q-109 0 -197 28.5t-149.5 91t-95 159.5t-33.5 233zM338 518q0 -315 227 -315q98 0 163 77.5t65 233.5q0 147 -53.5 225t-170.5 78 q-43 0 -85 -17.5t-74.5 -54t-52 -93t-19.5 -134.5zM403 1303l359 225l108 -180l-377 -195z" />
<glyph unicode="&#xf4;" horiz-adv-x="1132" d="M68 492q0 119 37.5 219t106.5 172.5t164 113.5t212 41q217 0 346 -124t129 -386q0 -121 -38 -221t-107.5 -173t-165 -113.5t-209.5 -40.5q-109 0 -197 28.5t-149.5 91t-95 159.5t-33.5 233zM266 1317l307 180l314 -178l-84 -154l-232 129l-227 -129zM338 518 q0 -315 227 -315q98 0 163 77.5t65 233.5q0 147 -53.5 225t-170.5 78q-43 0 -85 -17.5t-74.5 -54t-52 -93t-19.5 -134.5z" />
<glyph unicode="&#xf5;" horiz-adv-x="1132" d="M68 492q0 119 37.5 219t106.5 172.5t164 113.5t212 41q217 0 346 -124t129 -386q0 -121 -38 -221t-107.5 -173t-165 -113.5t-209.5 -40.5q-109 0 -197 28.5t-149.5 91t-95 159.5t-33.5 233zM221 1386q43 39 97.5 64t113.5 25q55 0 93 -15.5t72 -35t66.5 -35t77.5 -15.5 q43 0 81 19.5t65 46.5l51 -174q-35 -31 -93.5 -58.5t-117.5 -27.5t-98 15t-72 34.5t-65.5 35t-79.5 15.5q-39 0 -75 -19.5t-65 -48.5zM338 518q0 -315 227 -315q98 0 163 77.5t65 233.5q0 147 -53.5 225t-170.5 78q-43 0 -85 -17.5t-74.5 -54t-52 -93t-19.5 -134.5z" />
<glyph unicode="&#xf6;" horiz-adv-x="1132" d="M68 492q0 119 37.5 219t106.5 172.5t164 113.5t212 41q217 0 346 -124t129 -386q0 -121 -38 -221t-107.5 -173t-165 -113.5t-209.5 -40.5q-109 0 -197 28.5t-149.5 91t-95 159.5t-33.5 233zM228 1327q0 59 40.5 100t100.5 41q59 0 100 -41t41 -100t-41 -100t-100 -41 t-100 41t-41 100zM338 518q0 -315 227 -315q98 0 163 77.5t65 233.5q0 147 -53.5 225t-170.5 78q-43 0 -85 -17.5t-74.5 -54t-52 -93t-19.5 -134.5zM641 1327q0 59 41 100t101 41q59 0 100 -41t41 -100t-41 -100t-100 -41t-100.5 41t-41.5 100z" />
<glyph unicode="&#xf7;" horiz-adv-x="1239" d="M98 418v221h1043v-221h-1043zM459 117q0 66 47 112.5t112 46.5q66 0 113 -46.5t47 -112.5t-47 -113t-113 -47t-112.5 47t-46.5 113zM459 938q0 66 47 114t112 48q66 0 113 -48t47 -114t-47 -113t-113 -47t-112.5 47t-46.5 113z" />
<glyph unicode="&#xf8;" horiz-adv-x="1122" d="M63 498q0 123 37 222t104.5 171t162 110.5t208.5 38.5q23 0 46.5 -1t46.5 -5l71 191l152 -47l-72 -187q102 -49 167 -159.5t65 -305.5q0 -121 -38 -221t-105.5 -173t-162 -114t-206.5 -41q-29 0 -56.5 3.5t-52.5 7.5l-80 -207l-151 47l80 207q-104 59 -160 177t-56 286z M307 512q0 -72 17.5 -133.5t52.5 -97.5l209 544q-16 2 -30.5 3t-31.5 -1q-41 -6 -79.5 -25.5t-69.5 -58t-49.5 -95t-18.5 -136.5zM512 199q16 -4 36.5 -7.5t41.5 1.5q43 4 83 24.5t69.5 60t47 100t17.5 140.5q0 78 -19.5 140.5t-60.5 99.5z" />
<glyph unicode="&#xf9;" horiz-adv-x="1286" d="M27 838v163q102 12 216.5 17.5t221.5 1.5v-653q0 -80 26.5 -125t98.5 -45q49 0 93 26.5t76 71.5t50 104.5t18 126.5v492h260v-817q37 -6 85.5 -11.5t93.5 -9.5v-164q-98 -12 -209 -17t-213 -1q0 35 2 87t10 95l-4 2q-45 -92 -132 -148.5t-212 -56.5q-86 0 -145.5 26 t-94.5 71t-50 103.5t-15 125.5v514q-37 6 -84 11.5t-92 9.5zM320 1346l113 182l356 -225l-92 -152z" />
<glyph unicode="&#xfa;" horiz-adv-x="1286" d="M27 838v163q102 12 216.5 17.5t221.5 1.5v-653q0 -80 26.5 -125t98.5 -45q49 0 93 26.5t76 71.5t50 104.5t18 126.5v492h260v-817q37 -6 85.5 -11.5t93.5 -9.5v-164q-98 -12 -209 -17t-213 -1q0 35 2 87t10 95l-4 2q-45 -92 -132 -148.5t-212 -56.5q-86 0 -145.5 26 t-94.5 71t-50 103.5t-15 125.5v514q-37 6 -84 11.5t-92 9.5zM483 1303l359 225l108 -180l-377 -195z" />
<glyph unicode="&#xfb;" horiz-adv-x="1286" d="M27 838v163q102 12 216.5 17.5t221.5 1.5v-653q0 -80 26.5 -125t98.5 -45q49 0 93 26.5t76 71.5t50 104.5t18 126.5v492h260v-817q37 -6 85.5 -11.5t93.5 -9.5v-164q-98 -12 -209 -17t-213 -1q0 35 2 87t10 95l-4 2q-45 -92 -132 -148.5t-212 -56.5q-86 0 -145.5 26 t-94.5 71t-50 103.5t-15 125.5v514q-37 6 -84 11.5t-92 9.5zM330 1317l307 180l314 -178l-84 -154l-232 129l-227 -129z" />
<glyph unicode="&#xfc;" horiz-adv-x="1286" d="M27 838v163q102 12 216.5 17.5t221.5 1.5v-653q0 -80 26.5 -125t98.5 -45q49 0 93 26.5t76 71.5t50 104.5t18 126.5v492h260v-817q37 -6 85.5 -11.5t93.5 -9.5v-164q-98 -12 -209 -17t-213 -1q0 35 2 87t10 95l-4 2q-45 -92 -132 -148.5t-212 -56.5q-86 0 -145.5 26 t-94.5 71t-50 103.5t-15 125.5v514q-37 6 -84 11.5t-92 9.5zM287 1327q0 59 40.5 100t100.5 41q59 0 100 -41t41 -100t-41 -100t-100 -41t-100 41t-41 100zM700 1327q0 59 41 100t101 41q59 0 100 -41t41 -100t-41 -100t-100 -41t-100.5 41t-41.5 100z" />
<glyph unicode="&#xff;" horiz-adv-x="1028" d="M0 -492l16 226q35 -10 69 -16.5t71 -6.5q33 0 59.5 8.5t51 30t45 58t40.5 94.5l35 98l-375 1018h291l137 -389q23 -66 43.5 -138.5t36.5 -142.5h2q8 35 20.5 77t26 85t26.5 85t26 77l120 346h281l-418 -1112q-45 -119 -90 -199t-98.5 -127t-119 -67.5t-153.5 -20.5 q-35 0 -72.5 4t-70.5 12zM175 1327q0 59 40.5 100t100.5 41q59 0 100 -41t41 -100t-41 -100t-100 -41t-100 41t-41 100zM588 1327q0 59 41 100t101 41q59 0 100 -41t41 -100t-41 -100t-100 -41t-100.5 41t-41.5 100z" />
<glyph unicode="&#x152;" horiz-adv-x="1679" d="M70 676q0 168 51 301t140 226t207 142.5t253 49.5q86 0 146.5 -6.5t125.5 -6.5h572v-223h-486v-340h461v-217h-461v-375h486v-227h-561q-90 0 -162 -8t-158 -8q-158 0 -272.5 50t-191.5 141t-113.5 219t-36.5 282zM348 698q0 -106 20.5 -194t65.5 -150.5t114.5 -97.5 t166.5 -35q29 0 57.5 3t50.5 7v920q-27 4 -54.5 6t-53.5 2q-78 0 -144.5 -31.5t-115.5 -91t-78 -144.5t-29 -194z" />
<glyph unicode="&#x153;" horiz-adv-x="1759" d="M68 500q0 121 36.5 220t104 170t162 109.5t207.5 38.5q106 0 197 -35.5t149 -113.5q55 70 137 110.5t192 40.5q111 0 192 -35.5t133 -97t77.5 -144.5t25.5 -177q0 -27 -2 -56.5t-6 -62.5h-631q-2 -283 279 -283q78 0 155.5 16.5t145.5 47.5l23 -203q-82 -33 -176.5 -49 t-188.5 -16q-143 0 -237.5 43t-149.5 122q-53 -72 -143.5 -118.5t-212.5 -46.5q-231 0 -350 132t-119 388zM324 512q0 -145 53 -230t180 -85q98 0 164.5 78.5t66.5 238.5q0 154 -54 231.5t-177 77.5q-43 0 -84 -16t-74.5 -53t-54 -96.5t-20.5 -145.5zM1044 645h377 q4 96 -44 149.5t-132 53.5q-82 0 -135 -55.5t-66 -147.5z" />
<glyph unicode="&#x178;" horiz-adv-x="1148" d="M6 1382h291l182 -397q29 -61 51.5 -118.5t42.5 -110.5h5q23 59 51 124.5t59 131.5l174 370h283l-440 -893v-489h-267v487zM226 1628q0 59 40.5 100t100.5 41q59 0 100 -41t41 -100t-41 -100t-100 -41t-100 41t-41 100zM639 1628q0 59 41 100t101 41q59 0 100 -41t41 -100 t-41 -100t-100 -41t-100.5 41t-41.5 100z" />
<glyph unicode="&#x2c6;" horiz-adv-x="872" d="M127 1317l307 180l314 -178l-84 -154l-232 129l-227 -129z" />
<glyph unicode="&#x2dc;" horiz-adv-x="956" d="M135 1386q43 39 97.5 64t113.5 25q55 0 93 -15.5t72 -35t66.5 -35t77.5 -15.5q43 0 81 19.5t65 46.5l51 -174q-35 -31 -93.5 -58.5t-117.5 -27.5t-98 15t-72 34.5t-65.5 35t-79.5 15.5q-39 0 -75 -19.5t-65 -48.5z" />
<glyph unicode="&#x2000;" horiz-adv-x="923" />
<glyph unicode="&#x2001;" horiz-adv-x="1847" />
<glyph unicode="&#x2002;" horiz-adv-x="923" />
<glyph unicode="&#x2003;" horiz-adv-x="1847" />
<glyph unicode="&#x2004;" horiz-adv-x="615" />
<glyph unicode="&#x2005;" horiz-adv-x="461" />
<glyph unicode="&#x2006;" horiz-adv-x="307" />
<glyph unicode="&#x2007;" horiz-adv-x="307" />
<glyph unicode="&#x2008;" horiz-adv-x="230" />
<glyph unicode="&#x2009;" horiz-adv-x="369" />
<glyph unicode="&#x200a;" horiz-adv-x="102" />
<glyph unicode="&#x2010;" horiz-adv-x="684" d="M90 416v209h504v-209h-504z" />
<glyph unicode="&#x2011;" horiz-adv-x="684" d="M90 416v209h504v-209h-504z" />
<glyph unicode="&#x2012;" horiz-adv-x="684" d="M90 416v209h504v-209h-504z" />
<glyph unicode="&#x2013;" horiz-adv-x="1024" d="M0 477v230h1024v-230h-1024z" />
<glyph unicode="&#x2014;" horiz-adv-x="2048" d="M0 477v230h2048v-230h-2048z" />
<glyph unicode="&#x2018;" horiz-adv-x="546" d="M99 1093.5q1 92.5 61.5 211t204.5 243.5l106 -96q-104 -113 -117.5 -185.5t33.5 -129.5q29 -35 34 -77t-11.5 -81t-53.5 -64.5t-90 -25.5q-72 0 -120 56t-47 148.5z" />
<glyph unicode="&#x2019;" horiz-adv-x="546" d="M74 967q104 113 117.5 185.5t-35.5 129.5q-29 33 -33 76t12.5 82t53 64.5t90.5 25.5q72 0 118.5 -56.5t46.5 -148.5t-60 -211t-204 -244z" />
<glyph unicode="&#x201a;" horiz-adv-x="546" d="M74 -258q104 113 117.5 184.5t-35.5 128.5q-29 35 -33 78t12.5 82t53 64.5t90.5 25.5q72 0 118.5 -56t46.5 -148.5t-60 -211t-204 -243.5z" />
<glyph unicode="&#x201c;" horiz-adv-x="993" d="M99 1093.5q1 92.5 61.5 211t204.5 243.5l106 -96q-104 -113 -117.5 -185.5t33.5 -129.5q29 -35 34 -77t-11.5 -81t-53.5 -64.5t-90 -25.5q-72 0 -120 56t-47 148.5zM547 1093.5q0 92.5 60.5 211t203.5 243.5l109 -96q-104 -113 -118 -185.5t34 -129.5q29 -35 32.5 -77 t-12.5 -81t-52 -64.5t-89 -25.5q-74 0 -121 56t-47 148.5z" />
<glyph unicode="&#x201d;" horiz-adv-x="993" d="M74 967q104 113 117.5 185.5t-35.5 129.5q-29 33 -33 76t12.5 82t53 64.5t90.5 25.5q72 0 118.5 -56.5t46.5 -148.5t-60 -211t-204 -244zM520 967q104 113 117.5 185.5t-33.5 129.5q-29 33 -33 76t12.5 82t52.5 64.5t89 25.5q74 0 121 -56.5t47 -148.5t-60.5 -211 t-203.5 -244z" />
<glyph unicode="&#x201e;" horiz-adv-x="993" d="M74 -258q104 113 117.5 184.5t-35.5 128.5q-29 35 -33 78t12.5 82t53 64.5t90.5 25.5q72 0 118.5 -56t46.5 -148.5t-60 -211t-204 -243.5zM520 -258q104 113 117.5 184.5t-33.5 128.5q-29 35 -33 78t12.5 82t52.5 64.5t89 25.5q74 0 121 -56t47 -148.5t-60.5 -211 t-203.5 -243.5z" />
<glyph unicode="&#x2022;" horiz-adv-x="878" d="M129 604q0 61 23.5 116.5t64.5 97.5t96.5 65.5t118.5 23.5q61 0 116.5 -23.5t97.5 -65.5t65.5 -97t23.5 -117q0 -63 -23.5 -118.5t-65.5 -96.5t-97 -64.5t-117 -23.5q-63 0 -118.5 23.5t-96.5 64.5t-64.5 96.5t-23.5 118.5z" />
<glyph unicode="&#x2026;" horiz-adv-x="1527" d="M96 143q0 70 49 119t119 49t118 -49t48 -119t-48 -119t-118 -49t-119 49.5t-49 118.5zM592 143q0 70 48 119t118 49t119 -49t49 -119t-49.5 -119t-118.5 -49q-70 0 -118 49.5t-48 118.5zM1085 143q0 70 49 119t119 49q68 0 117 -49t49 -119t-49 -119t-117 -49 q-70 0 -119 49.5t-49 118.5z" />
<glyph unicode="&#x202f;" horiz-adv-x="369" />
<glyph unicode="&#x2039;" horiz-adv-x="638" d="M84 508l235 399l201 -98l-186 -301l188 -295l-209 -98z" />
<glyph unicode="&#x203a;" horiz-adv-x="638" d="M117 807l209 100l231 -395l-238 -397l-200 96l186 301z" />
<glyph unicode="&#x205f;" horiz-adv-x="461" />
<glyph unicode="&#x2122;" horiz-adv-x="1411" d="M59 1225v157h459v-157h-133v-418h-186v418h-140zM535 807l92 575h223l70 -252l16 -83l14 79l70 256h223l96 -575h-194l-37 248l-10 96l-19 -88l-67 -256h-174l-68 262l-16 82l-4 -74l-39 -270h-176z" />
<glyph unicode="&#xe000;" horiz-adv-x="1013" d="M0 0v1014h1014v-1014h-1014z" />
<glyph unicode="&#xfb01;" horiz-adv-x="1218" d="M16 815v203h179v37q0 227 120.5 342.5t380.5 115.5q88 0 163 -10t153 -26l-45 -220q-57 18 -124 29.5t-126 11.5q-141 0 -201.5 -58t-60.5 -169v-53h622v-1018h-260v815h-362v-815h-260v815h-179z" />
<glyph unicode="&#xfb02;" horiz-adv-x="1218" d="M16 815v203h179v98q0 88 27.5 162t88 126t155.5 80.5t230 28.5q78 0 177.5 -9t203.5 -25v-1479h-260v1288q-74 12 -143 12q-111 0 -165 -47t-54 -149v-86h223v-203h-223v-815h-260v815h-179z" />
</font>
</defs>
</svg>
