<?xml version="1.0" standalone="no"?>
<!DOCTYPE svg PUBLIC "-//W3C//DTD SVG 1.1//EN" "http://www.w3.org/Graphics/SVG/1.1/DTD/svg11.dtd" >
<svg xmlns="http://www.w3.org/2000/svg">
<metadata></metadata>
<defs>
<font id="the_mix_semi_bold-regular" horiz-adv-x="1441" >
<font-face units-per-em="2048" ascent="1638" descent="-410" />
<missing-glyph horiz-adv-x="446" />
<glyph horiz-adv-x="2048" />
<glyph horiz-adv-x="2048" />
<glyph unicode="&#xd;" horiz-adv-x="2048" />
<glyph unicode=" "  horiz-adv-x="446" />
<glyph unicode="&#x09;" horiz-adv-x="446" />
<glyph unicode="&#xa0;" horiz-adv-x="446" />
<glyph unicode="!" horiz-adv-x="620" d="M168 117q0 57 40.5 96t100.5 39q59 0 99.5 -39t40.5 -96q0 -58 -40.5 -97.5t-99.5 -39.5q-60 0 -100.5 39.5t-40.5 97.5zM180 1456h258l-35 -1094h-186z" />
<glyph unicode="&#x22;" horiz-adv-x="784" d="M98 1524h226l-31 -494h-162zM461 1524h225l-31 -494h-163z" />
<glyph unicode="#" horiz-adv-x="1406" d="M57 377v160h301l37 346h-278v159h295l37 340h186l-35 -340h277l36 340h189l-35 -340h281v-159h-299l-37 -346h278v-160h-295l-39 -377h-188l39 377h-277l-41 -377h-188l41 377h-285zM547 537h276l37 346h-276z" />
<glyph unicode="$" horiz-adv-x="1005" d="M109 918q0 134 88.5 230t236.5 122v211h160v-201q109 -3 213 -25l-16 -190q-119 35 -230 35q-119 0 -174 -45t-55 -115q0 -49 31.5 -85.5t82 -61.5t111.5 -48.5t121.5 -53.5t111 -69t82 -103t31.5 -148q0 -141 -91 -244.5t-251 -136.5v-258h-160v248q-126 3 -249 28 l12 201q116 -43 264 -43q113 0 179.5 44t66.5 136q0 45 -24.5 80.5t-64 57t-90.5 44.5t-103.5 42t-103.5 49.5t-90.5 67.5t-64 96.5t-24.5 134.5z" />
<glyph unicode="%" horiz-adv-x="1648" d="M82 1061q0 165 99.5 261.5t238.5 96.5q70 0 127 -18.5t102.5 -56.5t70.5 -102.5t25 -151.5q0 -164 -101.5 -263.5t-244.5 -99.5q-144 0 -230.5 85t-86.5 249zM242 63l985 1371l155 -115l-983 -1370zM270 1075q0 -100 35 -146t105 -46q66 0 106.5 51t40.5 143 q0 99 -35 143t-108 44q-62 0 -103 -51.5t-41 -137.5zM887 297q0 165 99.5 261.5t238.5 96.5q70 0 127 -18.5t102.5 -56.5t70.5 -102.5t25 -151.5q0 -164 -101.5 -263.5t-244.5 -99.5q-144 0 -230.5 85t-86.5 249zM1075 311q0 -100 34.5 -146t104.5 -46q66 0 107 51t41 143 q0 99 -35.5 143t-107.5 44q-62 0 -103 -51.5t-41 -137.5z" />
<glyph unicode="&#x26;" horiz-adv-x="1638" d="M106 381q0 91 37.5 172t92 139.5t141.5 128.5q-107 121 -149 205t-42 166q0 137 103 231.5t280 94.5q163 0 253.5 -80t90.5 -211q0 -110 -59.5 -206t-185.5 -196q231 -231 440 -393v-2q107 149 113 338q-70 13 -162 20v127q223 23 383 15q21 -353 -178 -613 q130 -103 264 -194l-144 -168q-154 110 -280 209q-99 -86 -237.5 -136.5t-299.5 -50.5q-221 0 -341 114t-120 290zM332 410q0 -102 75.5 -174t196.5 -72q176 0 340 121q-266 220 -438 405q-91 -75 -132.5 -141.5t-41.5 -138.5zM403 1202q0 -47 31.5 -106t104.5 -146 q81 67 120 127.5t39 130.5q0 62 -37 102t-108 40q-66 0 -108 -41t-42 -107z" />
<glyph unicode="'" horiz-adv-x="423" d="M98 1524h226l-31 -494h-162z" />
<glyph unicode="(" horiz-adv-x="622" d="M127 582q0 532 281 987h202q-268 -445 -268 -977q0 -548 274 -987h-210q-279 450 -279 977z" />
<glyph unicode=")" horiz-adv-x="622" d="M18 -395q273 447 273 985q0 261 -70 511t-203 468h209q277 -453 277 -983q0 -531 -279 -981h-207z" />
<glyph unicode="*" horiz-adv-x="774" d="M72 1092l209 88l-209 88l80 137l180 -135l-29 225h160l-27 -225l180 135l78 -135l-209 -88l209 -88l-80 -140l-180 138l29 -226h-160l27 226l-180 -138z" />
<glyph unicode="+" horiz-adv-x="1155" d="M53 436v182h420v435h207v-435h422v-182h-422v-436h-207v436h-420z" />
<glyph unicode="," horiz-adv-x="495" d="M53 -252q178 191 88 303q-25 30 -29 68t10 69.5t46.5 53.5t75.5 22q79 0 119 -71q50 -90 3 -224q-54 -154 -221 -303z" />
<glyph unicode="-" horiz-adv-x="679" d="M94 428v176h492v-176h-492z" />
<glyph unicode="." horiz-adv-x="495" d="M102 125q0 59 43 101t103 42t102.5 -42t42.5 -101q0 -60 -42.5 -102.5t-102.5 -42.5t-103 42.5t-43 102.5z" />
<glyph unicode="/" horiz-adv-x="862" d="M68 0l528 1382h213l-526 -1382h-215z" />
<glyph unicode="0" horiz-adv-x="1251" d="M96 516q0 126 44.5 232.5t119.5 176.5t173 109t206 39q107 0 194 -28t146.5 -76.5t99.5 -116.5t58 -145.5t18 -165.5q0 -170 -76 -299.5t-200 -195.5t-275 -66q-110 0 -200 31t-160 93.5t-109 167.5t-39 244zM315 532q0 -164 77 -264t231 -100q131 0 222 99t91 263 q0 160 -78 258.5t-227 98.5q-135 0 -225.5 -97t-90.5 -258z" />
<glyph unicode="1" horiz-adv-x="696" d="M41 936l309 117h174v-1053h-225v844l-221 -94z" />
<glyph unicode="2" horiz-adv-x="987" d="M102 0v176l240 199q63 52 96 80.5t71.5 66t55.5 63.5t29 57.5t12 64.5q0 80 -52 129t-148 49q-65 0 -133.5 -22.5t-118.5 -53.5l-31 188q158 74 332 74q188 0 290.5 -88.5t102.5 -234.5q0 -109 -63.5 -204.5t-196.5 -203.5l-189 -150l-2 -4q117 9 494 9v-195h-789z" />
<glyph unicode="3" horiz-adv-x="942" d="M82 -373l22 193q91 -27 183 -27q151 0 234 70t83 184q0 137 -121 195.5t-329 36.5v176q206 -2 316 60.5t110 184.5q0 86 -58.5 135.5t-159.5 49.5q-124 0 -235 -62l-21 185q139 59 300 59q199 0 301 -92.5t102 -235.5q0 -112 -64.5 -198.5t-173.5 -132.5v-2 q126 -23 198.5 -114t72.5 -218q0 -202 -152.5 -335.5t-417.5 -133.5q-100 0 -190 22z" />
<glyph unicode="4" horiz-adv-x="1124" d="M33 178l549 879h278v-860h234v-197h-234v-385h-215v385h-577zM244 195q104 2 405 2v645h-2z" />
<glyph unicode="5" horiz-adv-x="954" d="M104 -385l23 199q77 -15 147 -15q171 0 261 75t90 196q0 119 -94.5 192.5t-268.5 73.5q-37 0 -115 -4v721h670v-215l-463 2v-322q238 0 371 -115t133 -303q0 -215 -168.5 -355t-429.5 -140q-71 0 -156 10z" />
<glyph unicode="6" horiz-adv-x="1191" d="M123 567q0 210 54 377t152 275.5t233.5 165.5t299.5 57q47 0 105 -4v-195q-65 10 -123 10q-195 0 -313.5 -110.5t-161.5 -306.5q-2 -8 -8 -32.5t-9 -41.5l2 -2q46 69 130.5 108t191.5 39q197 0 311.5 -118.5t114.5 -317.5q0 -216 -142 -353.5t-368 -137.5 q-220 0 -344.5 154t-124.5 433zM369 461q0 -126 64 -210.5t185 -84.5q115 0 182.5 78t67.5 200q0 128 -64.5 200.5t-178.5 72.5q-121 0 -188.5 -75t-67.5 -181z" />
<glyph unicode="7" horiz-adv-x="940" d="M47 838v215h838v-185q-261 -592 -404 -1253h-245q164 679 403 1229q-102 -6 -592 -6z" />
<glyph unicode="8" horiz-adv-x="1132" d="M104 340q0 54 16.5 104t40.5 87t63 74.5t71.5 61.5t77.5 54h-2q-123 72 -185.5 157.5t-62.5 196.5q0 168 125.5 272.5t326.5 104.5q196 0 311 -93t115 -245q0 -107 -61 -191.5t-192 -170.5q60 -36 103.5 -68.5t87 -79t66.5 -105t23 -126.5q0 -123 -66.5 -213.5t-175 -135 t-241.5 -44.5q-209 0 -325 99t-116 261zM336 365q0 -92 62.5 -147.5t168.5 -55.5q99 0 164.5 51.5t65.5 138.5q0 86 -62.5 149t-187.5 128h-2q-101 -62 -155 -124t-54 -140zM352 1087q0 -72 54 -127.5t167 -117.5l2 -2q107 70 153 126t46 126q0 77 -55 128.5t-154 51.5 t-156 -52.5t-57 -132.5z" />
<glyph unicode="9" horiz-adv-x="1191" d="M90 571q0 217 139.5 357.5t360.5 140.5q107 0 193 -35t150.5 -106t100 -187t35.5 -268q0 -416 -197.5 -642t-558.5 -226q-75 0 -129 10v203q72 -21 140 -21q198 0 315.5 97t165.5 290q2 10 8 43.5t8 48.5l-2 3q-47 -64 -128.5 -102t-182.5 -38q-194 0 -306 117t-112 315z M322 606q0 -131 63 -202.5t182 -71.5q113 0 182.5 73t69.5 177q0 135 -65 218t-183 83q-112 0 -180.5 -79t-68.5 -198z" />
<glyph unicode=":" horiz-adv-x="542" d="M127 125q0 59 42.5 101t100.5 42q60 0 103 -42t43 -101q0 -60 -43 -102.5t-103 -42.5q-59 0 -101 42.5t-42 102.5zM127 715q0 60 42 102.5t101 42.5q60 0 103 -42.5t43 -102.5t-43 -103t-103 -43q-59 0 -101 43t-42 103z" />
<glyph unicode=";" horiz-adv-x="542" d="M80 -252q179 192 86 303q-24 30 -28 68t10 69.5t46.5 53.5t75.5 22q79 0 119 -71q51 -90 4 -224q-54 -154 -221 -303zM127 715q0 60 42 102.5t101 42.5q60 0 103 -42.5t43 -102.5t-43 -103t-103 -43q-59 0 -101 43t-42 103z" />
<glyph unicode="&#x3c;" horiz-adv-x="1028" d="M106 510l650 600l141 -143l-510 -455l512 -442l-143 -150z" />
<glyph unicode="=" horiz-adv-x="1185" d="M139 246v178h910v-178h-910zM139 614v179h910v-179h-910z" />
<glyph unicode="&#x3e;" horiz-adv-x="1028" d="M129 963l143 149l650 -590l-650 -600l-141 144l510 454z" />
<glyph unicode="?" horiz-adv-x="872" d="M131 1268l27 198q143 -7 259.5 -42.5t190.5 -91.5t114 -126.5t40 -148.5q0 -57 -17.5 -108t-45.5 -87.5t-62 -73.5t-67.5 -67t-62.5 -69t-46 -78t-18.5 -94t20.5 -118h-213q-29 81 -29.5 150.5t21.5 119.5t55.5 93.5t73 80t73 70.5t56 74t22.5 82q0 98 -107 162.5 t-284 73.5zM223 117q0 57 41 96t101 39q59 0 99 -39t40 -96q0 -58 -40 -97.5t-99 -39.5q-60 0 -101 39.5t-41 97.5z" />
<glyph unicode="@" horiz-adv-x="1685" d="M121 625q0 169 62.5 316.5t169 250t250.5 161t304 58.5q153 0 277.5 -47t205.5 -128.5t125 -188.5t44 -228q0 -234 -113 -354.5t-305 -120.5q-101 0 -150 53t-41 129h-6q-32 -73 -103 -127.5t-159 -54.5q-186 0 -186 246q0 99 27 184t78.5 150t132.5 102t184 37 q101 0 227 -29l-64 -348q-18 -101 4 -143.5t86 -42.5q199 0 199 309q0 88 -27.5 164.5t-82.5 139t-148 98.5t-215 36q-162 0 -295.5 -76t-212 -215.5t-78.5 -314.5q0 -235 136 -374.5t391 -139.5q166 0 309 49v-166q-62 -22 -157.5 -35.5t-178.5 -13.5q-323 0 -506.5 182 t-183.5 482zM666 623q0 -64 15 -93.5t50 -29.5q68 0 126 91.5t89 248.5l15 78q-42 10 -91 10q-66 0 -114.5 -51.5t-69 -118.5t-20.5 -135z" />
<glyph unicode="A" horiz-adv-x="1269" d="M12 0l496 1382h248l501 -1382h-247l-107 305h-559l-106 -305h-226zM401 483h443l-158 435q-37 100 -61 212h-4q-19 -96 -64 -219z" />
<glyph unicode="B" horiz-adv-x="1175" d="M160 0v1382q382 7 434 7q224 0 340.5 -87.5t116.5 -248.5q0 -106 -65 -192.5t-171 -123.5v-4q129 -25 196.5 -113t67.5 -202q0 -58 -15 -113.5t-54 -113t-98.5 -100.5t-156 -70t-218.5 -27q-46 0 -179.5 2.5t-197.5 3.5zM383 186q58 -10 162 -10q147 0 223 64.5t76 173.5 q0 215 -336 215q-94 0 -125 -2v-441zM383 797q37 -2 119 -2q153 0 234 58.5t81 164.5q0 91 -60 141.5t-200 50.5q-68 0 -174 -4v-409z" />
<glyph unicode="C" horiz-adv-x="1177" d="M88 651q0 164 42 298.5t124 234.5t214 155.5t302 55.5q142 0 305 -39l-24 -205q-152 47 -299 47q-85 0 -154.5 -25.5t-118.5 -71t-82.5 -109.5t-49 -140t-15.5 -164q0 -504 438 -504q70 0 152 18t139 46l26 -199q-165 -65 -366 -65q-168 0 -293 51.5t-198 144.5 t-107.5 210.5t-34.5 260.5z" />
<glyph unicode="D" horiz-adv-x="1378" d="M160 0v1380q7 0 169.5 4.5t258.5 4.5q166 0 294 -39t221 -120t141 -211.5t48 -307.5q0 -175 -56 -312.5t-158 -226t-242 -134.5t-310 -46q-83 0 -214.5 4t-151.5 4zM383 193q83 -11 166 -11q233 0 369.5 128t136.5 384q0 251 -117.5 380.5t-366.5 129.5q-115 0 -188 -6 v-1005z" />
<glyph unicode="E" horiz-adv-x="1019" d="M160 0v1382h729v-186h-506v-393h481v-182h-481v-431h506v-190h-729z" />
<glyph unicode="F" horiz-adv-x="956" d="M160 0v1382h721v-188h-498v-406h471v-182h-471v-606h-223z" />
<glyph unicode="G" horiz-adv-x="1390" d="M82 662q0 160 53 296t149.5 234t240 153.5t317.5 55.5q199 0 385 -60l-35 -206q-181 71 -369 71q-106 0 -196.5 -34t-158.5 -98t-107 -164.5t-39 -225.5q0 -238 127.5 -372t351.5 -134q109 0 213 33v502h223v-650q-215 -83 -463 -83q-322 0 -507 181.5t-185 500.5z" />
<glyph unicode="H" horiz-adv-x="1419" d="M160 0v1382h223v-571h653v571h221v-1382h-221v621h-653v-621h-223z" />
<glyph unicode="I" horiz-adv-x="544" d="M160 0v1382h223v-1382h-223z" />
<glyph unicode="J" horiz-adv-x="679" d="M2 0v195q67 -23 133 -23q83 0 122.5 45.5t39.5 165.5v999h223v-1009q0 -389 -358 -389q-74 0 -160 16z" />
<glyph unicode="K" horiz-adv-x="1208" d="M160 0v1382h223v-641l504 641h274l-549 -667l570 -715h-297l-502 676v-676h-223z" />
<glyph unicode="L" horiz-adv-x="874" d="M160 0v1382h223v-1187h475v-195h-698z" />
<glyph unicode="M" horiz-adv-x="1814" d="M84 0l207 1382h266l266 -798q56 -169 76 -283h4q19 99 76 274l272 807h269l211 -1382h-236l-109 735q-19 120 -43 338h-4q-32 -157 -71 -270l-260 -803h-232l-248 745q-67 198 -88 328h-4q-2 -32 -37 -358l-88 -715h-227z" />
<glyph unicode="N" d="M160 0v1382h293l456 -753q53 -89 168 -314q-14 277 -14 658v409h217v-1382h-289l-473 786q-73 119 -153 291q12 -203 12 -612v-465h-217z" />
<glyph unicode="O" d="M78 676q0 168 52 306.5t142.5 230t211 141t257.5 49.5q141 0 255 -44t196.5 -129t127 -217.5t44.5 -303.5q0 -168 -52 -307t-142.5 -230.5t-211 -141.5t-258.5 -50q-206 0 -347 86.5t-208 240.5t-67 369zM315 702q0 -243 102 -383.5t300 -140.5q79 0 151 32t130 92.5 t93 160t35 223.5q0 250 -105.5 385t-299.5 135q-81 0 -153.5 -32.5t-129 -94t-90 -159t-33.5 -218.5z" />
<glyph unicode="P" horiz-adv-x="1079" d="M160 0v1382q239 9 354 9q243 0 375.5 -111t132.5 -305q0 -203 -149 -336t-388 -133q-67 0 -102 4v-510h-223zM383 698q62 -8 98 -8q140 2 225 73.5t85 192.5t-72.5 186.5t-220.5 65.5q-78 0 -115 -4v-506z" />
<glyph unicode="Q" horiz-adv-x="1439" d="M78 676q0 168 52 306.5t142.5 230t211 141t257.5 49.5q141 0 255 -44t196.5 -129t127 -217.5t44.5 -303.5q0 -168 -52 -307t-142.5 -230.5t-211 -141.5t-258.5 -50q-206 0 -347 86.5t-208 240.5t-67 369zM315 702q0 -243 102 -383.5t300 -140.5q79 0 151 32t130 92.5 t93 160t35 223.5q0 250 -105.5 385t-299.5 135q-81 0 -153.5 -32.5t-129 -94t-90 -159t-33.5 -218.5zM639 -137q61 7 120 7q32 0 63 -2q89 -6 151 -22t139 -31t148 -21q22 -2 48 -2q57 0 130 9v-196q-79 -12 -154 -12h-11q-80 1 -138 12t-121.5 24.5t-116 25.5t-121.5 15 q-17 1 -34 1q-51 0 -103 -7v199z" />
<glyph unicode="R" horiz-adv-x="1144" d="M160 0v1382q150 9 370 9q484 0 484 -375q0 -162 -108.5 -265t-282.5 -122q39 -49 116 -148l365 -481h-281l-430 598h-10v-598h-223zM383 766q40 -4 109 -4q134 0 211 62.5t77 166.5q0 113 -69.5 165t-210.5 52q-51 0 -117 -4v-438z" />
<glyph unicode="S" horiz-adv-x="1030" d="M94 999q0 182 135.5 293t372.5 111q100 0 250 -25l-12 -198q-125 39 -250 39q-126 0 -193 -53t-67 -142q0 -56 33.5 -97.5t86.5 -68.5t117.5 -52t129 -56t117.5 -71t86.5 -106.5t33.5 -154.5q0 -194 -143.5 -316t-387.5 -122q-150 0 -278 32l12 211q137 -51 287 -51 q122 0 198 53t76 160q0 59 -33.5 102t-86.5 70t-117.5 51t-129 54.5t-117.5 70t-86.5 107.5t-33.5 159z" />
<glyph unicode="T" horiz-adv-x="1052" d="M35 1194v188h983v-188h-381v-1194h-223v1194h-379z" />
<glyph unicode="U" horiz-adv-x="1406" d="M160 471v911h223v-895q0 -74 14 -129t48 -100.5t98 -69.5t157 -24q172 0 250 81t78 271v866h219v-850q0 -274 -143.5 -413t-417.5 -139q-126 0 -221 27.5t-152 71.5t-92.5 110t-48 133t-12.5 149z" />
<glyph unicode="V" horiz-adv-x="1273" d="M14 1382h246l291 -852q51 -142 88 -280h2q43 166 90 295l297 837h229l-497 -1382h-254z" />
<glyph unicode="W" horiz-adv-x="1949" d="M61 1382h238l213 -839q33 -123 53 -273h2q24 155 56 262l235 850h244l241 -852q38 -140 56 -254h2q24 146 49 242l215 864h223l-358 -1382h-275l-235 854q-25 84 -53 260h-2q-14 -122 -50 -256l-233 -858h-262z" />
<glyph unicode="X" horiz-adv-x="1253" d="M29 0l448 711l-422 671h258l308 -505l303 505h252l-414 -667l463 -715h-281l-328 543l-325 -543h-262z" />
<glyph unicode="Y" horiz-adv-x="1122" d="M12 1382h244l205 -436q51 -113 98 -233h4q38 100 115 258l194 411h236l-440 -888v-494h-224v494z" />
<glyph unicode="Z" horiz-adv-x="1101" d="M92 0v170l545 866q53 85 102 150q-59 -2 -280 -2h-346v198h891v-176l-574 -895q-24 -40 -72 -110q37 4 324 4h330v-205h-920z" />
<glyph unicode="[" horiz-adv-x="663" d="M162 -412v1997h426v-172h-221v-1651h221v-174h-426z" />
<glyph unicode="\" horiz-adv-x="841" d="M51 1382h203l539 -1382h-209z" />
<glyph unicode="]" horiz-adv-x="663" d="M76 -238h221v1651h-221v172h426v-1997h-426v174z" />
<glyph unicode="^" horiz-adv-x="1095" d="M115 774l338 608h172l352 -604l-160 -82l-282 527l-271 -527z" />
<glyph unicode="_" horiz-adv-x="1024" d="M0 -342h1024v-174h-1024v174z" />
<glyph unicode="`" horiz-adv-x="759" d="M184 1364l101 154l321 -228l-84 -125z" />
<glyph unicode="a" horiz-adv-x="1116" d="M88 240q0 173 161 270.5t439 97.5v66q0 99 -48.5 145.5t-164.5 46.5q-73 0 -157 -22t-146 -60l-20 187q172 67 358 67q114 0 193 -23.5t123 -70.5t62.5 -107.5t18.5 -142.5v-524q83 -14 178 -20v-136q-158 -16 -290 -16q-48 0 -93 2q0 112 11 188l-2 2 q-38 -93 -128.5 -151.5t-209.5 -58.5q-131 0 -208 69.5t-77 190.5zM299 276q0 -57 37.5 -90.5t101.5 -33.5q108 0 179 87t71 201v21q-389 0 -389 -185z" />
<glyph unicode="b" horiz-adv-x="1157" d="M-6 1346v135q156 16 297 16q51 0 100 -2v-469q0 -110 -16 -195h2q40 96 125.5 151.5t197.5 55.5q181 0 278 -124t97 -355q0 -266 -143.5 -420.5t-396.5 -154.5q-195 0 -363 43v1298q-94 15 -178 21zM391 178q64 -20 162 -20q137 0 215 92t78 289q0 317 -203 317 q-78 0 -137 -55.5t-87 -136.5t-28 -170v-316z" />
<glyph unicode="c" horiz-adv-x="882" d="M78 475q0 123 32 224.5t94.5 176.5t162 116.5t227.5 41.5q116 0 221 -30l-22 -191q-103 39 -205 39q-137 0 -209 -93.5t-72 -258.5q0 -328 271 -328q128 0 221 49l18 -186q-128 -51 -287 -51q-102 0 -182 26.5t-142 83t-95 153t-33 228.5z" />
<glyph unicode="d" horiz-adv-x="1187" d="M78 459q0 264 143 419.5t389 155.5q44 0 154 -8v299q-94 15 -178 21v135q156 16 296 16q51 0 99 -2v-1325q83 -14 178 -20v-136q-157 -16 -291 -16q-49 0 -94 2q0 110 14 190h-4q-42 -96 -128.5 -153t-202.5 -57q-184 0 -279.5 126.5t-95.5 352.5zM309 479 q0 -319 203 -319q77 0 136 56t87.5 138t28.5 172v316q-82 18 -162 18q-138 0 -215.5 -92t-77.5 -289z" />
<glyph unicode="e" horiz-adv-x="1046" d="M78 502q0 237 124 386.5t341 149.5q106 0 187 -34.5t130 -95.5t73.5 -139t24.5 -171q0 -44 -6 -102h-649v-17q-1 -161 71 -241q76 -84 230 -84q164 0 297 65l21 -174q-154 -65 -353 -65q-491 0 -491 522zM307 649h432v11q0 97 -52 155q-55 62 -152 62q-92 0 -153 -62 t-75 -166z" />
<glyph unicode="f" horiz-adv-x="720" d="M16 848v170h195v78q0 413 397 413q86 0 166 -18l-16 -180q-64 20 -140 20q-98 0 -144 -55.5t-46 -175.5v-82h264v-170h-264v-848h-217v848h-195z" />
<glyph unicode="g" horiz-adv-x="1138" d="M78 459q0 265 145 420t402 155q191 0 356 -28v-1063q0 -69 -13.5 -130t-50.5 -123t-96 -106t-157.5 -72t-227.5 -28q-170 0 -301 39l17 209q151 -60 301 -60q158 0 235.5 66t77.5 219v68q0 99 12 163l-4 2q-41 -97 -125.5 -152.5t-191.5 -55.5q-183 0 -281 122t-98 355z M309 479q0 -317 201 -317q78 0 137.5 55.5t88 138t28.5 174.5v312q-80 18 -162 18q-138 0 -215.5 -92t-77.5 -289z" />
<glyph unicode="h" horiz-adv-x="1187" d="M-6 1346v135q156 16 297 16q51 0 100 -2v-461q0 -134 -18 -205l4 -2q45 98 134.5 154.5t211.5 56.5q84 0 144.5 -25t95 -70.5t50 -102t15.5 -127.5v-713h-219v655q0 101 -34 151t-118 50q-115 0 -190.5 -106t-75.5 -261v-489h-219v1325q-94 15 -178 21z" />
<glyph unicode="i" horiz-adv-x="595" d="M41 868v136q156 16 296 16q51 0 99 -2v-1018h-217v848q-83 14 -178 20zM188 1307q0 57 41.5 97t98.5 40q59 0 100 -39.5t41 -97.5q0 -57 -41.5 -97.5t-99.5 -40.5q-57 0 -98.5 40.5t-41.5 97.5z" />
<glyph unicode="j" horiz-adv-x="602" d="M-72 -496l17 189q61 -23 125 -23q89 0 121 45.5t32 167.5v965q-83 14 -178 20v136q156 16 297 16q51 0 100 -2v-1114q0 -213 -84 -315.5t-288 -102.5q-80 0 -142 18zM193 1307q0 57 40.5 97t98.5 40q59 0 100 -39.5t41 -97.5q0 -57 -41.5 -97.5t-99.5 -40.5t-98.5 40.5 t-40.5 97.5z" />
<glyph unicode="k" horiz-adv-x="1050" d="M-6 1346v135q156 16 297 16q51 0 100 -2v-913l330 436h268l-377 -465l406 -553h-279l-348 516v-516h-219v1325q-94 15 -178 21z" />
<glyph unicode="l" horiz-adv-x="550" d="M-6 1346v135q156 16 297 16q51 0 100 -2v-1495h-219v1325q-94 15 -178 21z" />
<glyph unicode="m" horiz-adv-x="1847" d="M41 868v136q158 16 292 16q49 0 95 -2q0 -116 -14 -199l2 -2q46 103 137.5 162t208.5 59q71 0 125 -21t84.5 -55.5t47 -69.5t23.5 -73q18 40 47 76t70.5 69.5t100 53.5t124.5 20q304 0 304 -336v-702h-220v649q0 104 -31 155.5t-114 51.5q-103 0 -182.5 -104t-79.5 -265 v-487h-217v651q0 47 -6 81t-21 64t-44.5 45t-74.5 15q-106 0 -184 -106t-78 -263v-487h-217v848q-83 14 -178 20z" />
<glyph unicode="n" horiz-adv-x="1232" d="M41 868v136q157 16 292 16q49 0 95 -2q0 -108 -16 -199l4 -2q46 102 137 161.5t215 59.5q84 0 144.5 -25t95 -70.5t50 -102t15.5 -127.5v-713h-217v655q0 101 -34.5 151t-119.5 50q-113 0 -189.5 -105.5t-76.5 -258.5v-492h-217v848q-83 14 -178 20z" />
<glyph unicode="o" horiz-adv-x="1124" d="M74 496q0 234 140 388t368 154q214 0 339.5 -126t125.5 -384q0 -155 -63 -280t-179 -196.5t-264 -71.5q-220 0 -343.5 128t-123.5 388zM301 518q0 -172 66 -261t194 -89q113 0 186.5 88.5t73.5 257.5q0 165 -64.5 252.5t-193.5 87.5q-109 0 -185.5 -86t-76.5 -250z" />
<glyph unicode="p" horiz-adv-x="1202" d="M41 868v136q157 16 290 16q48 0 93 -2q0 -125 -12 -191h4q44 99 130 155t202 56q180 0 277 -124.5t97 -354.5q0 -270 -139 -421.5t-391 -151.5q-92 0 -156 12v-498h-217v1348q-83 14 -178 20zM436 178q70 -20 162 -20q138 0 215.5 92t77.5 289q0 319 -203 319 q-77 0 -136 -56t-87.5 -138t-28.5 -172v-314z" />
<glyph unicode="q" horiz-adv-x="1142" d="M82 457q0 267 144 422t401 155q191 0 356 -28v-1336q83 -14 178 -20v-135q-175 -18 -327 -18q-35 0 -68 1v500q0 114 14 188l-4 2q-40 -97 -125 -152.5t-192 -55.5q-183 0 -280 121t-97 356zM311 479q0 -319 201 -319q78 0 137.5 56t88 139t28.5 175v314q-79 18 -162 18 q-137 0 -215 -93t-78 -290z" />
<glyph unicode="r" horiz-adv-x="786" d="M41 868v136q157 16 292 16q49 0 95 -2q0 -95 -20 -225h4q18 54 46 99t68 81.5t98 53.5q43 13 91 13q17 0 35 -2l-11 -215q-32 6 -61 6q-106 1 -166 -81q-76 -104 -76 -334v-414h-217v848q-83 14 -178 20z" />
<glyph unicode="s" horiz-adv-x="862" d="M94 723q0 138 110 226.5t310 88.5q81 0 191 -18l-7 -178q-95 28 -198 28q-89 0 -135 -33.5t-46 -93.5q0 -40 25 -68t64.5 -45.5t87.5 -33t96.5 -37t88 -50.5t64.5 -80t25 -120q0 -145 -120.5 -237t-321.5 -92q-110 0 -215 20l6 186q112 -32 221 -32q90 0 145.5 36.5 t55.5 98.5q0 41 -24.5 69.5t-64 45t-87.5 31t-95.5 35t-87 49t-64 81t-24.5 123.5z" />
<glyph unicode="t" horiz-adv-x="763" d="M8 848v170h195v323l217 60v-383h268v-170h-266v-488q0 -113 28 -152.5t105 -39.5q71 0 133 16v-180q-108 -22 -203 -22q-161 0 -221.5 69t-60.5 242v555h-195z" />
<glyph unicode="u" horiz-adv-x="1273" d="M35 868v136q164 16 301 16q50 0 96 -2v-656q0 -101 33.5 -150.5t118.5 -49.5q113 0 189.5 105.5t76.5 258.5v492h217v-848q83 -14 178 -20v-136q-157 -16 -291 -16q-49 0 -94 2q0 114 14 199l-4 2q-46 -102 -137 -161.5t-215 -59.5q-84 0 -144.5 25t-95 70.5t-50 102 t-15.5 127.5v543q-83 14 -178 20z" />
<glyph unicode="v" horiz-adv-x="1013" d="M12 1018h242l190 -539q41 -116 66 -209h2q30 117 59 201l195 547h235l-385 -1018h-223z" />
<glyph unicode="w" horiz-adv-x="1626" d="M27 1018h239l135 -473q62 -220 76 -285h2q25 127 72 279l151 479h222l153 -471q52 -165 80 -287h2q30 143 72 277l141 481h227l-325 -1018h-242l-176 532q-29 85 -59 216h-2q-25 -113 -70 -256l-154 -492h-231z" />
<glyph unicode="x" horiz-adv-x="1071" d="M33 0l364 512l-344 506h264l228 -363l231 363h244l-336 -502l352 -516h-278l-230 369l-231 -369h-264z" />
<glyph unicode="y" horiz-adv-x="1003" d="M-16 -500l16 193q65 -23 133 -23q79 0 128 47t95 174l41 109l-381 1018h246l166 -465q33 -89 80 -266h2q31 126 100 317l146 414h235l-422 -1116q-90 -240 -184 -328t-264 -88q-65 0 -137 14z" />
<glyph unicode="z" horiz-adv-x="919" d="M96 0v156l453 669q-102 -4 -246 -4h-197v197h703v-154l-447 -667q102 4 256 4h199v-201h-721z" />
<glyph unicode="{" horiz-adv-x="716" d="M57 561v168q118 6 164.5 51.5t46.5 169.5v213q0 207 80 314.5t264 107.5h39v-172q-104 0 -142 -50.5t-38 -195.5v-211q0 -144 -47 -217.5t-141 -91.5v-2q188 -28 188 -317v-320q0 -145 38 -195.5t142 -50.5v-174h-39q-183 0 -263.5 102t-80.5 322v322q0 122 -48 171.5 t-163 55.5z" />
<glyph unicode="|" horiz-adv-x="569" d="M195 -512v2048h174v-2048h-174z" />
<glyph unicode="}" horiz-adv-x="712" d="M76 -238q104 0 142 50.5t38 195.5v320q0 289 188 317v2q-188 25 -188 303v217q0 145 -38 195.5t-142 50.5v172h39q184 0 264 -107.5t80 -314.5v-207q0 -128 46.5 -174.5t164.5 -52.5v-168q-113 -6 -162 -56t-49 -171v-322q0 -220 -80.5 -322t-263.5 -102h-39v174z" />
<glyph unicode="~" horiz-adv-x="1179" d="M92 602q129 115 285 115q54 0 104 -12.5t87.5 -30.5t73.5 -36.5t78 -31t85 -12.5q101 0 211 96l71 -155q-125 -132 -290 -132q-65 0 -129 19t-107 42.5t-98 42.5t-105 19q-104 0 -198 -86z" />
<glyph unicode="&#xa1;" horiz-adv-x="620" d="M164 903q0 57 40.5 97t98.5 40q60 0 100.5 -40t40.5 -97t-40.5 -97t-100.5 -40q-58 0 -98.5 40t-40.5 97zM180 -438l27 1095h186l31 -1095h-244z" />
<glyph unicode="&#xa2;" horiz-adv-x="931" d="M84 555q0 197 103.5 333.5t283.5 166.5v188h168v-178q105 -3 199 -39l-19 -186q-96 47 -215 47q-135 0 -214 -84.5t-79 -235.5q0 -141 69.5 -225t219.5 -84q126 0 225 57l17 -192q-97 -41 -203 -49v-213h-168v215q-188 20 -287.5 145t-99.5 334z" />
<glyph unicode="&#xa3;" horiz-adv-x="1007" d="M115 0v166q117 79 171 155t54 185q0 23 -12 158h-209v167h190q-22 203 -22 236q0 199 94.5 290t284.5 91q88 0 170 -16l-13 -181q-81 19 -141 19q-88 0 -132 -50.5t-44 -144.5q0 -37 22 -244h277v-167h-260q8 -65 8 -129q0 -112 -41 -192.5t-129 -158.5q97 9 160 9h342 v-193h-770z" />
<glyph unicode="&#xa4;" horiz-adv-x="1138" d="M78 -225q0 82 47 151t117 105q-101 51 -101 151q0 57 31 104t84 72q-150 85 -150 285q0 168 122 281.5t333 113.5q80 0 168 -20h344v-172h-155q69 -59 69 -170q0 -170 -115 -273.5t-331 -103.5q-61 0 -111 12q-28 -13 -43.5 -34t-15.5 -44q0 -38 38.5 -54.5t129.5 -16.5 h174q166 0 257 -76.5t91 -218.5q0 -166 -154.5 -278.5t-396.5 -112.5q-203 0 -317.5 77t-114.5 222zM295 -184q0 -80 68.5 -125t181.5 -45q140 0 218.5 52.5t78.5 139.5q0 68 -47.5 107t-141.5 39h-190q-39 0 -55 2q-53 -30 -83 -74t-30 -96zM319 664q0 -101 59.5 -156 t168.5 -55q105 0 167 55t62 154q0 100 -59 157.5t-166 57.5t-169.5 -59t-62.5 -154z" />
<glyph unicode="&#xa5;" horiz-adv-x="1220" d="M63 1382h244l203 -419q47 -100 100 -240h2q34 94 117 264l199 395h235l-391 -770h277v-143h-330v-131h330v-145h-330v-193h-221v193h-328v145h328v131h-328v143h276z" />
<glyph unicode="&#xa7;" horiz-adv-x="1026" d="M135 711q0 88 37.5 163.5t99.5 122.5q-61 84 -61 195q0 67 23.5 126t70.5 106t126 74.5t181 27.5q80 0 146 -17l-15 -184q-65 21 -137 21q-164 0 -164 -146q0 -39 24.5 -83t63.5 -87t86.5 -90t94.5 -100t86 -108.5t63.5 -123.5t24.5 -137q0 -84 -38 -160t-99 -123 q67 -89 67 -202q0 -62 -24 -119.5t-72 -106.5t-132 -78.5t-194 -29.5q-83 0 -160 18l17 191q71 -23 151 -23q91 0 135 41.5t44 108.5q0 55 -46 118t-111 126.5t-130.5 133t-111.5 160t-46 185.5zM336 737q0 -81 64 -168.5t231 -259.5q24 20 39.5 58t15.5 77q0 41 -15.5 81 t-47.5 83.5t-63.5 79t-82.5 91.5t-86 98q-55 -46 -55 -140z" />
<glyph unicode="&#xa8;" horiz-adv-x="1118" d="M217 1335q0 51 35.5 87t87.5 36t88.5 -36t36.5 -87q0 -53 -36.5 -89t-88.5 -36t-87.5 36t-35.5 89zM618 1335q0 51 36.5 87t88.5 36q51 0 87 -36t36 -87q0 -52 -36 -88.5t-87 -36.5q-53 0 -89 36t-36 89z" />
<glyph unicode="&#xa9;" horiz-adv-x="1552" d="M80 684q0 188 92.5 347.5t252.5 252t349 92.5q142 0 270 -54.5t220.5 -146.5t147 -220t54.5 -269q0 -188 -92.5 -347.5t-252 -252t-347.5 -92.5q-144 0 -273 54t-221 146t-146 220t-54 270zM250 686q0 -143 70 -264.5t190.5 -192.5t263.5 -71t263.5 70.5t190.5 191.5 t70 264q0 142 -69.5 263.5t-190.5 193t-264 71.5t-263.5 -70.5t-190.5 -191.5t-70 -264zM446 676q0 76 20.5 142t62 119t112 83.5t162.5 30.5q84 0 166 -29l-23 -152q-65 35 -139 35q-176 0 -176 -223q0 -207 168 -207q78 0 151 31l27 -146q-93 -38 -205 -38q-160 0 -243 96 t-83 258z" />
<glyph unicode="&#xaa;" horiz-adv-x="845" d="M90 856q0 123 113 190.5t299 65.5v35q0 110 -127 110q-108 0 -225 -55l-17 154q121 45 268 45q148 0 214.5 -66t66.5 -168v-333q77 -12 127 -17v-119q-164 -18 -303 -12q0 50 10 105l-2 2q-22 -51 -81.5 -87t-125.5 -36q-106 0 -161.5 50.5t-55.5 135.5zM268 883 q0 -33 22 -52.5t60 -19.5q70 0 111 56t41 108v20q-234 0 -234 -112z" />
<glyph unicode="&#xab;" horiz-adv-x="1064" d="M100 506l230 385l168 -84l-187 -301l187 -293l-174 -88zM516 506l252 379l162 -86l-201 -293l201 -285l-168 -90z" />
<glyph unicode="&#xac;" horiz-adv-x="1110" d="M74 449v178h930v-494h-193v316h-737z" />
<glyph unicode="&#xad;" horiz-adv-x="679" d="M94 428v176h492v-176h-492z" />
<glyph unicode="&#xae;" horiz-adv-x="1153" d="M113 1087q0 192 135 325.5t327 133.5q196 0 330.5 -132.5t134.5 -326.5q0 -124 -63 -229.5t-170 -167t-232 -61.5q-195 0 -328.5 132.5t-133.5 325.5zM252 1090q0 -134 95 -232t228 -98q135 0 230.5 95t95.5 230q0 136 -96 234t-230 98q-133 0 -228 -96t-95 -231z M418 860v461h174q162 0 162 -125q0 -54 -27.5 -87t-75.5 -44q23 -28 37 -59l80 -146h-133l-96 184h-11v-184h-110zM528 1118h25q40 0 60 18.5t20 47.5q0 28 -15.5 40.5t-50.5 12.5h-39v-119z" />
<glyph unicode="&#xaf;" horiz-adv-x="751" d="M143 1247v162h449v-162h-449z" />
<glyph unicode="&#xb0;" horiz-adv-x="780" d="M98 1239q0 124 88 199t203 75q141 0 212 -75.5t71 -192.5q0 -126 -87.5 -200t-207.5 -74q-129 0 -204 72t-75 196zM266 1243q0 -62 32 -97.5t87 -35.5q53 0 87 37.5t34 95.5q0 53 -29 92t-90 39q-53 0 -87 -36.5t-34 -94.5z" />
<glyph unicode="&#xb1;" horiz-adv-x="1189" d="M96 553v180h396v395h206v-395h396v-180h-396v-399h-206v399h-396zM106 41h977v-184h-977v184z" />
<glyph unicode="&#xb4;" horiz-adv-x="800" d="M195 1290l321 226l98 -150l-338 -201z" />
<glyph unicode="&#xb5;" horiz-adv-x="1259" d="M166 -500v1518h219v-633q0 -118 54.5 -172.5t160.5 -54.5q125 0 199.5 104t74.5 264v492h218v-1018h-209q0 117 12 193l-4 2q-11 -30 -27 -57.5t-43 -56.5t-60.5 -49.5t-82 -34t-105.5 -13.5q-63 0 -114 20t-76 49l-4 -2q6 -59 6 -213v-338h-219z" />
<glyph unicode="&#xb6;" horiz-adv-x="1198" d="M125 940q0 197 130 319.5t339 122.5v-890q-118 -1 -209.5 34.5t-147 97.5t-84 142t-28.5 174zM604 -25h148v1407h329v-172h-139v-1407h-338v172z" />
<glyph unicode="&#xb7;" horiz-adv-x="512" d="M106 588q0 61 44 105t106 44t106 -44t44 -105t-44 -104.5t-106 -43.5t-106 43.5t-44 104.5z" />
<glyph unicode="&#xb8;" horiz-adv-x="819" d="M285 -416q186 133 86 312h204q123 -247 -190 -398z" />
<glyph unicode="&#xba;" horiz-adv-x="864" d="M90 1028q0 169 98.5 272t251.5 103q69 0 125.5 -18t103.5 -57.5t73 -110t26 -166.5q0 -171 -99.5 -275t-256.5 -104q-149 0 -235.5 86t-86.5 270zM270 1040q0 -92 36.5 -152.5t117.5 -60.5q72 0 117 53t45 158q0 95 -37 152t-119 57q-65 0 -112.5 -52t-47.5 -155z" />
<glyph unicode="&#xbb;" horiz-adv-x="1064" d="M135 219l201 291l-201 287l168 88l246 -375l-252 -379zM567 211l187 299l-187 295l174 86l226 -381l-232 -385z" />
<glyph unicode="&#xbf;" horiz-adv-x="872" d="M111 -37q0 51 14 97t37 80.5t52 67.5t59.5 61.5t59 58.5t51 64t35.5 72t11 87t-20 106h213q28 -81 28.5 -150.5t-22 -119.5t-56 -93t-72.5 -80t-72.5 -71t-56 -74.5t-22.5 -82.5q0 -97 107.5 -162t283.5 -72l-28 -201q-143 7 -258.5 43.5t-190 92.5t-114 127t-39.5 149z M369 903q0 57 40.5 97t98.5 40q60 0 100.5 -40t40.5 -97t-40.5 -97t-100.5 -40q-58 0 -98.5 40t-40.5 97z" />
<glyph unicode="&#xc0;" horiz-adv-x="1269" d="M12 0l496 1382h248l501 -1382h-247l-107 305h-559l-106 -305h-226zM336 1679l100 154l322 -227l-84 -125zM401 483h443l-158 435q-37 100 -61 212h-4q-19 -96 -64 -219z" />
<glyph unicode="&#xc1;" horiz-adv-x="1269" d="M12 0l496 1382h248l501 -1382h-247l-107 305h-559l-106 -305h-226zM401 483h443l-158 435q-37 100 -61 212h-4q-19 -96 -64 -219zM467 1606l321 225l99 -150l-338 -200z" />
<glyph unicode="&#xc2;" horiz-adv-x="1269" d="M12 0l496 1382h248l501 -1382h-247l-107 305h-559l-106 -305h-226zM342 1618l291 186l301 -182l-80 -129l-223 133l-217 -133zM401 483h443l-158 435q-37 100 -61 212h-4q-19 -96 -64 -219z" />
<glyph unicode="&#xc3;" horiz-adv-x="1269" d="M12 0l496 1382h248l501 -1382h-247l-107 305h-559l-106 -305h-226zM287 1694q93 86 202 86q47 0 90.5 -16t71.5 -34.5t66 -34.5t76 -16q73 0 143 66l45 -146q-33 -33 -90 -58t-111 -25q-51 0 -95.5 15.5t-71 33.5t-64.5 33.5t-78 15.5q-72 0 -137 -68zM401 483h443 l-158 435q-37 100 -61 212h-4q-19 -96 -64 -219z" />
<glyph unicode="&#xc4;" horiz-adv-x="1269" d="M12 0l496 1382h248l501 -1382h-247l-107 305h-559l-106 -305h-226zM305 1626q0 51 35.5 87t87.5 36t88.5 -36t36.5 -87q0 -52 -36.5 -88.5t-88.5 -36.5t-87.5 36t-35.5 89zM401 483h443l-158 435q-37 100 -61 212h-4q-19 -96 -64 -219zM707 1626q0 51 36 87t88 36 q51 0 87 -36t36 -87q0 -52 -36 -88.5t-87 -36.5q-52 0 -88 36t-36 89z" />
<glyph unicode="&#xc5;" horiz-adv-x="1269" d="M12 0l496 1382h248l501 -1382h-247l-107 305h-559l-106 -305h-226zM389 1579q0 100 72 168t174 68q103 0 173.5 -67.5t70.5 -168.5q0 -98 -72 -167t-172 -69q-104 0 -175 67t-71 169zM401 483h443l-158 435q-37 100 -61 212h-4q-19 -96 -64 -219zM524 1579 q0 -46 32 -79.5t79 -33.5q45 0 76.5 33.5t31.5 79.5q0 47 -31 80t-77 33q-47 0 -79 -33t-32 -80z" />
<glyph unicode="&#xc6;" horiz-adv-x="1603" d="M-84 0l713 1382h827v-186h-495v-393h477v-182h-477v-431h512v-190h-730v322h-434l-162 -322h-231zM387 498h356v696h-4q-83 -189 -133 -283z" />
<glyph unicode="&#xc7;" horiz-adv-x="1177" d="M88 651q0 164 42 298.5t124 234.5t214 155.5t302 55.5q142 0 305 -39l-24 -205q-152 47 -299 47q-85 0 -154.5 -25.5t-118.5 -71t-82.5 -109.5t-49 -140t-15.5 -164q0 -504 438 -504q70 0 152 18t139 46l26 -199q-165 -65 -366 -65q-168 0 -293 51.5t-198 144.5 t-107.5 210.5t-34.5 260.5zM496 -416q186 133 86 312h204q123 -247 -190 -398z" />
<glyph unicode="&#xc8;" horiz-adv-x="1019" d="M160 0v1382h729v-186h-506v-393h481v-182h-481v-431h506v-190h-729zM252 1679l100 154l322 -227l-84 -125z" />
<glyph unicode="&#xc9;" horiz-adv-x="1019" d="M160 0v1382h729v-186h-506v-393h481v-182h-481v-431h506v-190h-729zM362 1606l322 225l98 -150l-338 -200z" />
<glyph unicode="&#xca;" horiz-adv-x="1019" d="M160 0v1382h729v-186h-506v-393h481v-182h-481v-431h506v-190h-729zM225 1618l291 186l301 -182l-80 -129l-223 133l-217 -133z" />
<glyph unicode="&#xcb;" horiz-adv-x="1019" d="M160 0v1382h729v-186h-506v-393h481v-182h-481v-431h506v-190h-729zM193 1626q0 51 35 87t87 36t88.5 -36t36.5 -87q0 -52 -36 -88.5t-89 -36.5q-52 0 -87 36t-35 89zM594 1626q0 51 36.5 87t88.5 36q51 0 87 -36t36 -87q0 -52 -36 -88.5t-87 -36.5q-53 0 -89 36.5 t-36 88.5z" />
<glyph unicode="&#xcc;" horiz-adv-x="544" d="M23 1679l100 154l321 -225l-84 -127zM160 0v1382h223v-1382h-223z" />
<glyph unicode="&#xcd;" horiz-adv-x="544" d="M88 1606l322 225l100 -150l-340 -198zM160 0v1382h223v-1382h-223z" />
<glyph unicode="&#xce;" horiz-adv-x="544" d="M-18 1618l292 186l299 -182l-77 -129l-224 135l-217 -135zM160 0v1382h223v-1382h-223z" />
<glyph unicode="&#xcf;" horiz-adv-x="544" d="M-55 1626q0 52 36 88.5t87 36.5q52 0 88.5 -36.5t36.5 -88.5q0 -51 -36.5 -87t-88.5 -36q-51 0 -87 36t-36 87zM160 0v1382h223v-1382h-223zM346 1626q0 52 36 88.5t89 36.5q52 0 87.5 -36t35.5 -89q0 -51 -35.5 -87t-87.5 -36t-88.5 36t-36.5 87z" />
<glyph unicode="&#xd1;" d="M160 0v1382h293l456 -753q53 -89 168 -314q-14 277 -14 658v409h217v-1382h-289l-473 786q-73 119 -153 291q12 -203 12 -612v-465h-217zM362 1694q93 86 203 86q47 0 90.5 -16t71 -34.5t65.5 -34.5t76 -16q74 0 144 66l45 -146q-33 -33 -90 -58t-111 -25 q-51 0 -95.5 15.5t-71 33.5t-64.5 33.5t-78 15.5q-72 0 -137 -68z" />
<glyph unicode="&#xd2;" d="M78 676q0 168 52 306.5t142.5 230t211 141t257.5 49.5q141 0 255 -44t196.5 -129t127 -217.5t44.5 -303.5q0 -168 -52 -307t-142.5 -230.5t-211 -141.5t-258.5 -50q-206 0 -347 86.5t-208 240.5t-67 369zM315 702q0 -243 102 -383.5t300 -140.5q79 0 151 32t130 92.5 t93 160t35 223.5q0 250 -105.5 385t-299.5 135q-81 0 -153.5 -32.5t-129 -94t-90 -159t-33.5 -218.5zM461 1679l100 154l322 -227l-84 -125z" />
<glyph unicode="&#xd3;" d="M78 676q0 168 52 306.5t142.5 230t211 141t257.5 49.5q141 0 255 -44t196.5 -129t127 -217.5t44.5 -303.5q0 -168 -52 -307t-142.5 -230.5t-211 -141.5t-258.5 -50q-206 0 -347 86.5t-208 240.5t-67 369zM315 702q0 -243 102 -383.5t300 -140.5q79 0 151 32t130 92.5 t93 160t35 223.5q0 250 -105.5 385t-299.5 135q-81 0 -153.5 -32.5t-129 -94t-90 -159t-33.5 -218.5zM596 1606l322 225l98 -150l-338 -200z" />
<glyph unicode="&#xd4;" d="M78 676q0 168 52 306.5t142.5 230t211 141t257.5 49.5q141 0 255 -44t196.5 -129t127 -217.5t44.5 -303.5q0 -168 -52 -307t-142.5 -230.5t-211 -141.5t-258.5 -50q-206 0 -347 86.5t-208 240.5t-67 369zM315 702q0 -243 102 -383.5t300 -140.5q79 0 151 32t130 92.5 t93 160t35 223.5q0 250 -105.5 385t-299.5 135q-81 0 -153.5 -32.5t-129 -94t-90 -159t-33.5 -218.5zM440 1618l291 186l301 -182l-80 -129l-223 133l-217 -133z" />
<glyph unicode="&#xd5;" d="M78 676q0 168 52 306.5t142.5 230t211 141t257.5 49.5q141 0 255 -44t196.5 -129t127 -217.5t44.5 -303.5q0 -168 -52 -307t-142.5 -230.5t-211 -141.5t-258.5 -50q-206 0 -347 86.5t-208 240.5t-67 369zM315 702q0 -243 102 -383.5t300 -140.5q79 0 151 32t130 92.5 t93 160t35 223.5q0 250 -105.5 385t-299.5 135q-81 0 -153.5 -32.5t-129 -94t-90 -159t-33.5 -218.5zM379 1698q93 86 203 86q47 0 90.5 -16t71 -34.5t65.5 -34.5t76 -16q73 0 143 66l45 -145q-33 -33 -90 -58.5t-111 -25.5q-51 0 -95.5 15.5t-71 33.5t-64.5 33.5t-78 15.5 q-72 0 -137 -68z" />
<glyph unicode="&#xd6;" d="M78 676q0 168 52 306.5t142.5 230t211 141t257.5 49.5q141 0 255 -44t196.5 -129t127 -217.5t44.5 -303.5q0 -168 -52 -307t-142.5 -230.5t-211 -141.5t-258.5 -50q-206 0 -347 86.5t-208 240.5t-67 369zM315 702q0 -243 102 -383.5t300 -140.5q79 0 151 32t130 92.5 t93 160t35 223.5q0 250 -105.5 385t-299.5 135q-81 0 -153.5 -32.5t-129 -94t-90 -159t-33.5 -218.5zM403 1626q0 51 35.5 87t87.5 36t88.5 -36t36.5 -87q0 -52 -36.5 -88.5t-88.5 -36.5t-87.5 36t-35.5 89zM805 1626q0 51 36.5 87t88.5 36q51 0 87 -36t36 -87 q0 -52 -36 -88.5t-87 -36.5q-52 0 -88.5 36.5t-36.5 88.5z" />
<glyph unicode="&#xd8;" d="M76 678q0 169 50.5 307t139.5 229t208.5 140t258.5 49q71 0 133 -12l70 196l164 -53l-68 -191q156 -71 241 -234t85 -411q0 -166 -51 -302.5t-140.5 -227t-210.5 -139.5t-262 -49q-83 0 -143 14l-76 -207l-164 53l74 205q-155 77 -232 241.5t-77 391.5zM303 696 q0 -317 158 -432l338 930q-64 9 -129 4q-157 -14 -262 -146t-105 -356zM616 186q59 -15 119 -12q172 8 283.5 139.5t111.5 368.5q0 157 -44 273t-130 173z" />
<glyph unicode="&#xd9;" horiz-adv-x="1406" d="M160 471v911h223v-895q0 -74 14 -129t48 -100.5t98 -69.5t157 -24q172 0 250 81t78 271v866h219v-850q0 -274 -143.5 -413t-417.5 -139q-126 0 -221 27.5t-152 71.5t-92.5 110t-48 133t-12.5 149zM428 1679l100 154l322 -227l-84 -125z" />
<glyph unicode="&#xda;" horiz-adv-x="1406" d="M160 471v911h223v-895q0 -74 14 -129t48 -100.5t98 -69.5t157 -24q172 0 250 81t78 271v866h219v-850q0 -274 -143.5 -413t-417.5 -139q-126 0 -221 27.5t-152 71.5t-92.5 110t-48 133t-12.5 149zM551 1606l321 225l99 -150l-338 -200z" />
<glyph unicode="&#xdb;" horiz-adv-x="1406" d="M160 471v911h223v-895q0 -74 14 -129t48 -100.5t98 -69.5t157 -24q172 0 250 81t78 271v866h219v-850q0 -274 -143.5 -413t-417.5 -139q-126 0 -221 27.5t-152 71.5t-92.5 110t-48 133t-12.5 149zM408 1618l290 186l301 -182l-79 -129l-224 133l-217 -133z" />
<glyph unicode="&#xdc;" horiz-adv-x="1406" d="M160 471v911h223v-895q0 -74 14 -129t48 -100.5t98 -69.5t157 -24q172 0 250 81t78 271v866h219v-850q0 -274 -143.5 -413t-417.5 -139q-126 0 -221 27.5t-152 71.5t-92.5 110t-48 133t-12.5 149zM358 1626q0 51 35.5 87t87.5 36t88.5 -36t36.5 -87q0 -52 -36 -88.5 t-89 -36.5q-52 0 -87.5 36t-35.5 89zM760 1626q0 51 36.5 87t88.5 36q51 0 87 -36t36 -87q0 -52 -36 -88.5t-87 -36.5q-53 0 -89 36.5t-36 88.5z" />
<glyph unicode="&#xdf;" horiz-adv-x="1226" d="M160 0v1018q0 130 37.5 227.5t104 154t150.5 84t185 27.5q182 0 286.5 -78t104.5 -210q0 -55 -14.5 -99t-38 -72.5t-51.5 -52t-56 -43.5t-51.5 -41t-38 -50t-14.5 -64q0 -39 21.5 -71.5t56 -56.5t76 -47t82.5 -51t75.5 -62t56 -85t21.5 -115q0 -150 -114 -241.5 t-302 -91.5q-122 0 -209 24l9 186q87 -38 192 -38q100 0 149.5 39t49.5 98q0 40 -21.5 73t-55.5 56.5t-75.5 46t-82.5 49.5t-75 60.5t-55.5 85t-21.5 116.5q0 57 19.5 103.5t48.5 75.5t63 58.5t63 54t48.5 60.5t19.5 78q0 66 -47.5 100.5t-128.5 34.5q-119 0 -183.5 -77 t-64.5 -234v-1030h-219z" />
<glyph unicode="&#xe0;" horiz-adv-x="1116" d="M88 240q0 173 161 270.5t439 97.5v66q0 99 -48.5 145.5t-164.5 46.5q-73 0 -157 -22t-146 -60l-20 187q172 67 358 67q114 0 193 -23.5t123 -70.5t62.5 -107.5t18.5 -142.5v-524q83 -14 178 -20v-136q-215 -22 -383 -14q0 112 11 188l-2 2q-38 -93 -128.5 -151.5 t-209.5 -58.5q-131 0 -208 69.5t-77 190.5zM279 1364l100 154l321 -228l-84 -125zM299 276q0 -57 37.5 -90.5t101.5 -33.5q108 0 179 87t71 201v21q-389 0 -389 -185z" />
<glyph unicode="&#xe1;" horiz-adv-x="1116" d="M88 240q0 173 161 270.5t439 97.5v66q0 99 -48.5 145.5t-164.5 46.5q-73 0 -157 -22t-146 -60l-20 187q172 67 358 67q114 0 193 -23.5t123 -70.5t62.5 -107.5t18.5 -142.5v-524q83 -14 178 -20v-136q-215 -22 -383 -14q0 112 11 188l-2 2q-38 -93 -128.5 -151.5 t-209.5 -58.5q-131 0 -208 69.5t-77 190.5zM299 276q0 -57 37.5 -90.5t101.5 -33.5q108 0 179 87t71 201v21q-389 0 -389 -185zM383 1290l322 226l98 -150l-338 -201z" />
<glyph unicode="&#xe2;" horiz-adv-x="1116" d="M88 240q0 173 161 270.5t439 97.5v66q0 99 -48.5 145.5t-164.5 46.5q-73 0 -157 -22t-146 -60l-20 187q172 67 358 67q114 0 193 -23.5t123 -70.5t62.5 -107.5t18.5 -142.5v-524q83 -14 178 -20v-136q-215 -22 -383 -14q0 112 11 188l-2 2q-38 -93 -128.5 -151.5 t-209.5 -58.5q-131 0 -208 69.5t-77 190.5zM238 1303l290 186l301 -182l-79 -129l-224 133l-217 -133zM299 276q0 -57 37.5 -90.5t101.5 -33.5q108 0 179 87t71 201v21q-389 0 -389 -185z" />
<glyph unicode="&#xe3;" horiz-adv-x="1116" d="M88 240q0 173 161 270.5t439 97.5v66q0 99 -48.5 145.5t-164.5 46.5q-73 0 -157 -22t-146 -60l-20 187q172 67 358 67q114 0 193 -23.5t123 -70.5t62.5 -107.5t18.5 -142.5v-524q83 -14 178 -20v-136q-215 -22 -383 -14q0 112 11 188l-2 2q-38 -93 -128.5 -151.5 t-209.5 -58.5q-131 0 -208 69.5t-77 190.5zM174 1378q93 86 203 86q47 0 90.5 -15.5t71 -34.5t65.5 -34.5t76 -15.5q73 0 143 66l45 -146q-33 -33 -89.5 -58.5t-110.5 -25.5q-51 0 -95.5 15.5t-71.5 33.5t-65 33.5t-78 15.5q-73 0 -137 -67zM299 276q0 -57 37.5 -90.5 t101.5 -33.5q108 0 179 87t71 201v21q-389 0 -389 -185z" />
<glyph unicode="&#xe4;" horiz-adv-x="1116" d="M88 240q0 173 161 270.5t439 97.5v66q0 99 -48.5 145.5t-164.5 46.5q-73 0 -157 -22t-146 -60l-20 187q172 67 358 67q114 0 193 -23.5t123 -70.5t62.5 -107.5t18.5 -142.5v-524q83 -14 178 -20v-136q-215 -22 -383 -14q0 112 11 188l-2 2q-38 -93 -128.5 -151.5 t-209.5 -58.5q-131 0 -208 69.5t-77 190.5zM203 1335q0 51 35.5 87t87.5 36t88.5 -36t36.5 -87q0 -53 -36.5 -89t-88.5 -36t-87.5 36t-35.5 89zM299 276q0 -57 37.5 -90.5t101.5 -33.5q108 0 179 87t71 201v21q-389 0 -389 -185zM604 1335q0 51 36.5 87t88.5 36q51 0 87 -36 t36 -87q0 -52 -36 -88.5t-87 -36.5q-53 0 -89 36t-36 89z" />
<glyph unicode="&#xe5;" horiz-adv-x="1116" d="M88 240q0 173 161 270.5t439 97.5v66q0 99 -48.5 145.5t-164.5 46.5q-73 0 -157 -22t-146 -60l-20 187q172 67 358 67q114 0 193 -23.5t123 -70.5t62.5 -107.5t18.5 -142.5v-524q83 -14 178 -20v-136q-215 -22 -383 -14q0 112 11 188l-2 2q-38 -93 -128.5 -151.5 t-209.5 -58.5q-131 0 -208 69.5t-77 190.5zM285 1360q0 100 71.5 167.5t173.5 67.5q103 0 173.5 -67t70.5 -168q0 -98 -72 -167t-172 -69q-104 0 -174.5 67t-70.5 169zM299 276q0 -57 37.5 -90.5t101.5 -33.5q108 0 179 87t71 201v21q-389 0 -389 -185zM420 1360 q0 -46 31.5 -79.5t78.5 -33.5q45 0 77 33.5t32 79.5q0 47 -31.5 80t-77.5 33q-47 0 -78.5 -32.5t-31.5 -80.5z" />
<glyph unicode="&#xe6;" horiz-adv-x="1646" d="M88 240q0 173 161 270.5t439 97.5v66q0 96 -49 144t-164 48q-73 0 -157 -22t-146 -60l-20 187q177 69 358 69q233 0 321 -143h3q46 63 128 102t181 39q107 0 188 -34.5t130 -95.5t73.5 -139t24.5 -171q0 -34 -7 -102h-649q-4 -175 71.5 -258.5t229.5 -83.5q163 0 299 65 l19 -174q-154 -65 -353 -65q-161 0 -266.5 60.5t-152.5 162.5l-2 -2q-50 -94 -146 -157.5t-231 -63.5q-132 0 -207.5 69.5t-75.5 190.5zM299 276q0 -57 37.5 -90.5t101.5 -33.5q108 0 179 87t71 201v21q-389 0 -389 -185zM907 649h432q3 104 -52 166t-152 62 q-90 0 -151.5 -62t-76.5 -166z" />
<glyph unicode="&#xe7;" horiz-adv-x="882" d="M78 475q0 123 32 224.5t94.5 176.5t162 116.5t227.5 41.5q116 0 221 -30l-22 -191q-103 39 -205 39q-137 0 -209 -93.5t-72 -258.5q0 -328 271 -328q128 0 221 49l18 -186q-128 -51 -287 -51q-102 0 -182 26.5t-142 83t-95 153t-33 228.5zM311 -416q186 133 86 312h205 q123 -247 -190 -398z" />
<glyph unicode="&#xe8;" horiz-adv-x="1046" d="M78 502q0 237 124 386.5t341 149.5q106 0 187 -34.5t130 -95.5t73.5 -139t24.5 -171q0 -44 -6 -102h-649q-4 -175 71.5 -258.5t229.5 -83.5q164 0 297 65l21 -174q-154 -65 -353 -65q-491 0 -491 522zM279 1364l100 154l321 -228l-84 -125zM307 649h432q3 104 -52 166 t-152 62q-92 0 -153 -62t-75 -166z" />
<glyph unicode="&#xe9;" horiz-adv-x="1046" d="M78 502q0 237 124 386.5t341 149.5q106 0 187 -34.5t130 -95.5t73.5 -139t24.5 -171q0 -44 -6 -102h-649q-4 -175 71.5 -258.5t229.5 -83.5q164 0 297 65l21 -174q-154 -65 -353 -65q-491 0 -491 522zM307 649h432q3 104 -52 166t-152 62q-92 0 -153 -62t-75 -166z M393 1290l322 226l98 -150l-338 -201z" />
<glyph unicode="&#xea;" horiz-adv-x="1046" d="M78 502q0 237 124 386.5t341 149.5q106 0 187 -34.5t130 -95.5t73.5 -139t24.5 -171q0 -44 -6 -102h-649q-4 -175 71.5 -258.5t229.5 -83.5q164 0 297 65l21 -174q-154 -65 -353 -65q-491 0 -491 522zM248 1303l291 186l301 -182l-80 -129l-223 133l-218 -133zM307 649 h432q3 104 -52 166t-152 62q-92 0 -153 -62t-75 -166z" />
<glyph unicode="&#xeb;" horiz-adv-x="1046" d="M78 502q0 237 124 386.5t341 149.5q106 0 187 -34.5t130 -95.5t73.5 -139t24.5 -171q0 -44 -6 -102h-649q-4 -175 71.5 -258.5t229.5 -83.5q164 0 297 65l21 -174q-154 -65 -353 -65q-491 0 -491 522zM217 1335q0 51 35.5 87t87.5 36t88.5 -36t36.5 -87q0 -53 -36.5 -89 t-88.5 -36t-87.5 36t-35.5 89zM307 649h432q3 104 -52 166t-152 62q-92 0 -153 -62t-75 -166zM618 1335q0 51 36.5 87t88.5 36q51 0 87 -36t36 -87q0 -52 -36 -88.5t-87 -36.5q-53 0 -89 36t-36 89z" />
<glyph unicode="&#xec;" horiz-adv-x="595" d="M41 868v136q213 22 395 14v-1018h-217v848q-83 14 -178 20zM43 1364l100 154l322 -228l-84 -125z" />
<glyph unicode="&#xed;" horiz-adv-x="595" d="M41 868v136q213 22 395 14v-1018h-217v848q-83 14 -178 20zM104 1290l322 226l98 -150l-338 -201z" />
<glyph unicode="&#xee;" horiz-adv-x="595" d="M12 1303l293 186l299 -182l-78 -129l-223 133l-217 -133zM41 868v136q213 22 395 14v-1018h-217v848q-83 14 -178 20z" />
<glyph unicode="&#xef;" horiz-adv-x="595" d="M-27 1335q0 51 36 87t87 36q52 0 88.5 -36t36.5 -87q0 -53 -36.5 -89t-88.5 -36q-51 0 -87 36.5t-36 88.5zM41 868v136q213 22 395 14v-1018h-217v848q-83 14 -178 20zM375 1335q0 51 36.5 87t88.5 36q51 0 87 -36t36 -87q0 -52 -36 -88.5t-87 -36.5q-52 0 -88.5 36 t-36.5 89z" />
<glyph unicode="&#xf1;" horiz-adv-x="1232" d="M41 868v136q214 22 387 14q0 -108 -16 -199l4 -2q46 102 137 161.5t215 59.5q84 0 144.5 -25t95 -70.5t50 -102t15.5 -127.5v-713h-217v655q0 101 -34.5 151t-119.5 50q-113 0 -189.5 -105.5t-76.5 -258.5v-492h-217v848q-83 14 -178 20zM283 1378q93 86 202 86 q47 0 90.5 -15.5t71 -34.5t65.5 -34.5t76 -15.5q74 0 144 66l45 -146q-33 -33 -90 -58.5t-111 -25.5q-51 0 -95.5 15.5t-71 33.5t-64.5 33.5t-78 15.5q-73 0 -137 -67z" />
<glyph unicode="&#xf2;" horiz-adv-x="1124" d="M74 496q0 234 140 388t368 154q214 0 339.5 -126t125.5 -384q0 -155 -63 -280t-179 -196.5t-264 -71.5q-220 0 -343.5 128t-123.5 388zM301 518q0 -172 66 -261t194 -89q113 0 186.5 88.5t73.5 257.5q0 165 -64.5 252.5t-193.5 87.5q-109 0 -185.5 -86t-76.5 -250z M313 1364l101 154l321 -228l-84 -125z" />
<glyph unicode="&#xf3;" horiz-adv-x="1124" d="M74 496q0 234 140 388t368 154q214 0 339.5 -126t125.5 -384q0 -155 -63 -280t-179 -196.5t-264 -71.5q-220 0 -343.5 128t-123.5 388zM301 518q0 -172 66 -261t194 -89q113 0 186.5 88.5t73.5 257.5q0 165 -64.5 252.5t-193.5 87.5q-109 0 -185.5 -86t-76.5 -250z M422 1290l321 226l99 -150l-338 -201z" />
<glyph unicode="&#xf4;" horiz-adv-x="1124" d="M74 496q0 234 140 388t368 154q214 0 339.5 -126t125.5 -384q0 -155 -63 -280t-179 -196.5t-264 -71.5q-220 0 -343.5 128t-123.5 388zM272 1303l291 186l301 -182l-80 -129l-223 133l-217 -133zM301 518q0 -172 66 -261t194 -89q113 0 186.5 88.5t73.5 257.5 q0 165 -64.5 252.5t-193.5 87.5q-109 0 -185.5 -86t-76.5 -250z" />
<glyph unicode="&#xf5;" horiz-adv-x="1124" d="M74 496q0 234 140 388t368 154q214 0 339.5 -126t125.5 -384q0 -155 -63 -280t-179 -196.5t-264 -71.5q-220 0 -343.5 128t-123.5 388zM221 1378q93 86 203 86q47 0 90.5 -15.5t71 -34.5t65.5 -34.5t76 -15.5q73 0 143 66l45 -146q-33 -33 -89.5 -58.5t-110.5 -25.5 q-51 0 -95.5 15.5t-71 33.5t-64.5 33.5t-78 15.5q-74 0 -138 -67zM301 518q0 -172 66 -261t194 -89q113 0 186.5 88.5t73.5 257.5q0 165 -64.5 252.5t-193.5 87.5q-109 0 -185.5 -86t-76.5 -250z" />
<glyph unicode="&#xf6;" horiz-adv-x="1124" d="M74 496q0 234 140 388t368 154q214 0 339.5 -126t125.5 -384q0 -155 -63 -280t-179 -196.5t-264 -71.5q-220 0 -343.5 128t-123.5 388zM240 1335q0 51 35 87t87 36t88.5 -36t36.5 -87q0 -53 -36.5 -89t-88.5 -36t-87 36t-35 89zM301 518q0 -172 66 -261t194 -89 q113 0 186.5 88.5t73.5 257.5q0 165 -64.5 252.5t-193.5 87.5q-109 0 -185.5 -86t-76.5 -250zM641 1335q0 51 36.5 87t88.5 36q51 0 87 -36t36 -87q0 -52 -36 -88.5t-87 -36.5q-52 0 -88.5 36t-36.5 89z" />
<glyph unicode="&#xf7;" horiz-adv-x="1218" d="M96 436v185h1026v-185h-1026zM469 115q0 58 41 99.5t98 41.5q59 0 100.5 -41.5t41.5 -99.5q0 -57 -42 -98.5t-100 -41.5q-57 0 -98 41.5t-41 98.5zM469 940q0 57 41 98t98 41q58 0 100 -41t42 -98q0 -58 -41.5 -99.5t-100.5 -41.5q-57 0 -98 41.5t-41 99.5z" />
<glyph unicode="&#xf8;" horiz-adv-x="1116" d="M70 500q0 238 136.5 388t362.5 150q51 0 97 -6l73 191l133 -43l-71 -187q233 -114 233 -467q0 -238 -138.5 -392t-360.5 -154q-69 0 -121 14l-80 -209l-133 41l82 211q-106 61 -159.5 180t-53.5 283zM274 512q0 -182 88 -270l236 616q-46 4 -72 2q-48 -3 -91 -24t-80 -61 t-59 -107.5t-22 -155.5zM483 170q49 -15 95 -12q108 7 178.5 97t70.5 263q0 204 -104 281z" />
<glyph unicode="&#xf9;" horiz-adv-x="1273" d="M35 868v136q224 22 397 14v-656q0 -101 33.5 -150.5t118.5 -49.5q113 0 189.5 105.5t76.5 258.5v492h217v-848q83 -14 178 -20v-136q-214 -22 -385 -14q0 114 14 199l-4 2q-46 -102 -137 -161.5t-215 -59.5q-84 0 -144.5 25t-95 70.5t-50 102t-15.5 127.5v543 q-83 14 -178 20zM336 1364l100 154l322 -228l-84 -125z" />
<glyph unicode="&#xfa;" horiz-adv-x="1273" d="M35 868v136q224 22 397 14v-656q0 -101 33.5 -150.5t118.5 -49.5q113 0 189.5 105.5t76.5 258.5v492h217v-848q83 -14 178 -20v-136q-214 -22 -385 -14q0 114 14 199l-4 2q-46 -102 -137 -161.5t-215 -59.5q-84 0 -144.5 25t-95 70.5t-50 102t-15.5 127.5v543 q-83 14 -178 20zM498 1290l321 226l99 -150l-338 -201z" />
<glyph unicode="&#xfb;" horiz-adv-x="1273" d="M35 868v136q224 22 397 14v-656q0 -101 33.5 -150.5t118.5 -49.5q113 0 189.5 105.5t76.5 258.5v492h217v-848q83 -14 178 -20v-136q-214 -22 -385 -14q0 114 14 199l-4 2q-46 -102 -137 -161.5t-215 -59.5q-84 0 -144.5 25t-95 70.5t-50 102t-15.5 127.5v543 q-83 14 -178 20zM340 1303l291 186l301 -182l-80 -129l-223 133l-217 -133z" />
<glyph unicode="&#xfc;" horiz-adv-x="1273" d="M35 868v136q224 22 397 14v-656q0 -101 33.5 -150.5t118.5 -49.5q113 0 189.5 105.5t76.5 258.5v492h217v-848q83 -14 178 -20v-136q-214 -22 -385 -14q0 114 14 199l-4 2q-46 -102 -137 -161.5t-215 -59.5q-84 0 -144.5 25t-95 70.5t-50 102t-15.5 127.5v543 q-83 14 -178 20zM305 1335q0 51 35.5 87t87.5 36t88.5 -36t36.5 -87q0 -53 -36.5 -89t-88.5 -36t-87.5 36t-35.5 89zM707 1335q0 51 36 87t88 36q51 0 87 -36t36 -87q0 -52 -36 -88.5t-87 -36.5q-52 0 -88 36t-36 89z" />
<glyph unicode="&#xff;" horiz-adv-x="1003" d="M-16 -500l16 193q65 -23 133 -23q79 0 128 47t95 174l41 109l-381 1018h246l166 -465q33 -89 80 -266h2q31 126 100 317l146 414h235l-422 -1116q-90 -240 -184 -328t-264 -88q-65 0 -137 14zM180 1335q0 51 35.5 87t87.5 36t88.5 -36t36.5 -87q0 -53 -36 -89t-89 -36 q-52 0 -87.5 36t-35.5 89zM582 1335q0 51 36.5 87t88.5 36q51 0 86.5 -36t35.5 -87q0 -52 -35.5 -88.5t-86.5 -36.5q-53 0 -89 36t-36 89z" />
<glyph unicode="&#x152;" horiz-adv-x="1693" d="M78 678q0 163 51 299.5t139 227t206 140.5t251 50q58 0 143.5 -6.5t124.5 -6.5h570v-186h-506v-393h481v-182h-481v-431h506v-190h-562q-58 0 -158 -7t-155 -7q-154 0 -272 50.5t-191 143t-110 218t-37 280.5zM311 698q0 -91 14 -167.5t45 -141.5t78 -110.5t115.5 -71 t155.5 -25.5q69 0 123 13v995q-68 10 -125 10q-172 0 -289 -136.5t-117 -365.5z" />
<glyph unicode="&#x153;" horiz-adv-x="1773" d="M74 502q0 235 137.5 385.5t363.5 150.5q113 0 207 -44t148 -130q120 174 342 174q106 0 187.5 -34.5t130.5 -95.5t73.5 -139t24.5 -171q0 -44 -9 -102h-649q-3 -175 72 -258.5t229 -83.5q168 0 301 65l19 -174q-157 -65 -355 -65q-281 0 -393 190q-58 -87 -151 -138.5 t-217 -51.5q-227 0 -344 137.5t-117 384.5zM291 512q0 -164 64 -257t200 -93q115 0 188.5 90t73.5 262q0 344 -262 344q-50 0 -95 -18.5t-84 -57t-62 -108t-23 -162.5zM1034 649h432q3 105 -51.5 166.5t-150.5 61.5q-91 0 -153.5 -63t-76.5 -165z" />
<glyph unicode="&#x178;" horiz-adv-x="1122" d="M12 1382h244l205 -436q51 -113 98 -233h4q38 100 115 258l194 411h236l-440 -888v-494h-224v494zM233 1626q0 51 35.5 87t87.5 36t88.5 -36t36.5 -87q0 -52 -36.5 -88.5t-88.5 -36.5t-87.5 36t-35.5 89zM635 1626q0 51 36.5 87t88.5 36q51 0 87 -36t36 -87 q0 -52 -36 -88.5t-87 -36.5q-52 0 -88.5 36.5t-36.5 88.5z" />
<glyph unicode="&#x2c6;" horiz-adv-x="880" d="M145 1303l291 186l301 -182l-80 -129l-223 133l-217 -133z" />
<glyph unicode="&#x2dc;" horiz-adv-x="989" d="M164 1378q93 86 203 86q47 0 90.5 -15.5t71 -34.5t65.5 -34.5t76 -15.5q73 0 143 66l45 -146q-33 -33 -90 -58.5t-111 -25.5q-51 0 -95.5 15.5t-71 33.5t-64.5 33.5t-78 15.5q-73 0 -137 -67z" />
<glyph unicode="&#x2000;" horiz-adv-x="916" />
<glyph unicode="&#x2001;" horiz-adv-x="1833" />
<glyph unicode="&#x2002;" horiz-adv-x="916" />
<glyph unicode="&#x2003;" horiz-adv-x="1833" />
<glyph unicode="&#x2004;" horiz-adv-x="611" />
<glyph unicode="&#x2005;" horiz-adv-x="458" />
<glyph unicode="&#x2006;" horiz-adv-x="305" />
<glyph unicode="&#x2007;" horiz-adv-x="305" />
<glyph unicode="&#x2008;" horiz-adv-x="229" />
<glyph unicode="&#x2009;" horiz-adv-x="366" />
<glyph unicode="&#x200a;" horiz-adv-x="101" />
<glyph unicode="&#x2010;" horiz-adv-x="679" d="M94 428v176h492v-176h-492z" />
<glyph unicode="&#x2011;" horiz-adv-x="679" d="M94 428v176h492v-176h-492z" />
<glyph unicode="&#x2012;" horiz-adv-x="679" d="M94 428v176h492v-176h-492z" />
<glyph unicode="&#x2013;" horiz-adv-x="1024" d="M0 496v192h1024v-192h-1024z" />
<glyph unicode="&#x2014;" horiz-adv-x="2048" d="M0 496v192h2048v-192h-2048z" />
<glyph unicode="&#x2018;" horiz-adv-x="520" d="M128 1237q53 154 220 303l92 -82q-178 -189 -86 -303q24 -29 28 -67t-10 -70t-46 -54t-74 -22q-79 0 -120 71q-51 90 -4 224z" />
<glyph unicode="&#x2019;" horiz-adv-x="520" d="M78 1010q64 70 92.5 128t25 98.5t-31.5 76.5q-25 29 -29 67t9.5 70t46 54t75.5 22q79 0 120 -71q50 -90 3 -225q-54 -154 -219 -302z" />
<glyph unicode="&#x201a;" horiz-adv-x="520" d="M78 -252q176 191 86 303q-25 30 -29 68t9.5 69.5t46 53.5t75.5 22q79 0 120 -71q50 -90 3 -225q-54 -154 -219 -302z" />
<glyph unicode="&#x201c;" horiz-adv-x="935" d="M128 1237q53 154 220 303l92 -82q-178 -189 -86 -303q24 -29 28 -67t-10 -70t-46 -54t-74 -22q-79 0 -120 71q-51 90 -4 224zM543 1237q54 154 221 303l92 -82q-178 -189 -86 -303q24 -29 28 -67t-10 -70t-46.5 -54t-75.5 -22q-79 0 -119 71q-51 90 -4 224z" />
<glyph unicode="&#x201d;" horiz-adv-x="935" d="M78 1010q64 70 92.5 128t25 98.5t-31.5 76.5q-25 29 -29 67t9.5 70t46 54t75.5 22q79 0 120 -71q50 -90 3 -225q-54 -154 -219 -302zM492 1010q65 70 93.5 128t25 98.5t-32.5 76.5q-24 29 -28 67t10 70t46.5 54t75.5 22q79 0 119 -71q51 -90 4 -224q-54 -154 -221 -303z " />
<glyph unicode="&#x201e;" horiz-adv-x="935" d="M78 -252q176 191 86 303q-25 30 -29 68t9.5 69.5t46 53.5t75.5 22q79 0 120 -71q50 -90 3 -225q-54 -154 -219 -302zM492 -252q179 192 86 303q-24 30 -28 68t10 69.5t46.5 53.5t75.5 22q79 0 119 -71q51 -90 4 -224q-54 -154 -221 -303z" />
<glyph unicode="&#x2022;" horiz-adv-x="880" d="M158 600q0 113 79 192.5t193 79.5q112 0 192 -80t80 -192t-80 -192t-192 -80q-114 0 -193 79.5t-79 192.5z" />
<glyph unicode="&#x2026;" horiz-adv-x="1447" d="M102 125q0 59 43 101t103 42t102.5 -42t42.5 -101q0 -60 -42.5 -102.5t-102.5 -42.5t-103 42.5t-43 102.5zM571 125q0 59 43 101t103 42t102.5 -42t42.5 -101q0 -60 -42.5 -102.5t-102.5 -42.5t-103 42.5t-43 102.5zM1040 125q0 59 43 101t103 42t102.5 -42t42.5 -101 q0 -60 -42.5 -102.5t-102.5 -42.5t-103 42.5t-43 102.5z" />
<glyph unicode="&#x202f;" horiz-adv-x="366" />
<glyph unicode="&#x2039;" horiz-adv-x="641" d="M98 506l242 383l166 -86l-197 -297l197 -289l-172 -90z" />
<glyph unicode="&#x203a;" horiz-adv-x="641" d="M135 215l195 295l-195 291l172 88l236 -379l-242 -383z" />
<glyph unicode="&#x205f;" horiz-adv-x="458" />
<glyph unicode="&#x2122;" horiz-adv-x="1421" d="M76 1249v133h450v-133h-143v-442h-160v442h-147zM553 807l90 575h199l80 -286l20 -90l16 84l84 292h197l92 -575h-166l-41 278l-12 103l-20 -92l-82 -289h-156l-80 295l-20 86l-6 -74l-43 -307h-152z" />
<glyph unicode="&#xe000;" horiz-adv-x="1013" d="M0 0v1014h1014v-1014h-1014z" />
<glyph unicode="&#xfb01;" horiz-adv-x="1212" d="M16 848v170h195v41q0 452 485 452q155 0 301 -38l-39 -183q-128 41 -249 41q-146 0 -213.5 -64.5t-67.5 -189.5v-59h625v-1018h-217v848h-408v-848h-217v848h-195z" />
<glyph unicode="&#xfb02;" horiz-adv-x="1212" d="M16 848v170h195v108q0 181 118.5 283t364.5 102q140 0 359 -32v-1479h-217v1319q-77 14 -162 14q-124 0 -185 -53.5t-61 -167.5v-94h254v-170h-254v-848h-217v848h-195z" />
</font>
</defs>
</svg>
