<?xml version="1.0" standalone="no"?>
<!DOCTYPE svg PUBLIC "-//W3C//DTD SVG 1.1//EN" "http://www.w3.org/Graphics/SVG/1.1/DTD/svg11.dtd" >
<svg xmlns="http://www.w3.org/2000/svg">
<metadata></metadata>
<defs>
<font id="the_mix_semi_light-regular" horiz-adv-x="1034" >
<font-face units-per-em="2048" ascent="1638" descent="-410" />
<missing-glyph horiz-adv-x="446" />
<glyph horiz-adv-x="2048" />
<glyph horiz-adv-x="2048" />
<glyph unicode="&#xd;" horiz-adv-x="2048" />
<glyph unicode=" "  horiz-adv-x="446" />
<glyph unicode="&#x09;" horiz-adv-x="446" />
<glyph unicode="&#xa0;" horiz-adv-x="446" />
<glyph unicode="!" horiz-adv-x="614" d="M197 90q0 46 32 77.5t78 31.5t77.5 -31.5t31.5 -77.5q0 -44 -31.5 -75t-77.5 -31t-78 31t-32 75zM215 1440h184l-28 -1112h-127z" />
<glyph unicode="&#x22;" horiz-adv-x="718" d="M113 1507h168l-29 -452h-111zM438 1507h166l-26 -452h-113z" />
<glyph unicode="#" horiz-adv-x="1384" d="M61 403v107h322l43 410h-307v108h319l37 354h129l-37 -354h318l39 354h129l-37 -354h305v-108h-317l-43 -410h305v-107h-316l-43 -403h-131l43 403h-317l-43 -403h-131l43 403h-310zM512 510h319l43 410h-319z" />
<glyph unicode="$" horiz-adv-x="999" d="M127 934q0 132 91 224t241 112v219h119v-213q124 -3 217 -25l-11 -139q-119 37 -233 37q-141 0 -205.5 -56t-64.5 -139q0 -51 26 -91.5t68 -66.5t96 -51.5t110 -46.5t110 -52t96 -67t68 -93t26 -128q0 -141 -92 -241t-254 -127v-273h-117v267q-139 0 -256 30l8 148 q52 -21 129 -34t141 -13q127 0 204 54t77 167q0 60 -33 104.5t-85 72.5t-115.5 53t-127 54.5t-115.5 67t-85 100.5t-33 146z" />
<glyph unicode="%" horiz-adv-x="1624" d="M92 1061q0 161 97 253.5t231 92.5q66 0 120.5 -17t97.5 -53.5t67 -99t24 -147.5q0 -161 -97.5 -256t-234.5 -95t-221 79t-84 243zM233 1075q0 -223 173 -223q84 0 133 60.5t49 164.5q0 112 -43.5 164.5t-134.5 52.5q-75 0 -126 -61t-51 -158zM256 33l969 1394l108 -77 l-968 -1395zM866 297q0 161 97 253.5t231 92.5q140 0 224.5 -76t84.5 -241q0 -161 -97.5 -256t-234.5 -95t-221 79t-84 243zM1010 311q0 -223 170 -223q84 0 133 60.5t49 164.5q0 112 -43.5 164.5t-134.5 52.5q-75 0 -124.5 -61t-49.5 -158z" />
<glyph unicode="&#x26;" horiz-adv-x="1630" d="M121 379q0 71 21 133.5t63.5 119t91 102.5t119.5 102q-115 131 -158 214t-43 164q0 127 93.5 214.5t254.5 87.5q147 0 229 -75.5t82 -193.5q0 -108 -60.5 -205t-195.5 -202q98 -107 233 -234t261 -229v-2q131 173 137 420q-77 13 -172 20v84q184 20 328 14 q15 -364 -186 -620q177 -140 282 -211l-98 -121q-182 128 -293 221q-222 -202 -545 -202q-208 0 -326 111t-118 288zM279 399q0 -122 87 -205t228 -83q235 0 410 157q-131 108 -268.5 239t-233.5 238q-119 -95 -171 -176t-52 -170zM369 1221q0 -55 37 -123t126 -170 q98 78 144.5 148.5t46.5 150.5q0 74 -44 121t-132 47q-78 0 -128 -48t-50 -126z" />
<glyph unicode="'" horiz-adv-x="393" d="M113 1507h168l-29 -452h-111z" />
<glyph unicode="(" horiz-adv-x="618" d="M160 582q0 529 280 987h144q-277 -449 -277 -977q0 -542 281 -987h-150q-82 133 -138.5 264.5t-86 255t-41.5 231.5t-12 226z" />
<glyph unicode=")" horiz-adv-x="618" d="M45 -395q279 447 279 985q0 259 -70.5 508.5t-206.5 470.5h143q283 -459 283 -987q0 -246 -62 -484t-221 -493h-145z" />
<glyph unicode="*" horiz-adv-x="755" d="M84 1098l211 98l-211 98l59 101l189 -131l-19 231h117l-18 -231l190 131l57 -101l-210 -96l210 -98l-59 -105l-190 133l20 -231h-119l21 231l-191 -133z" />
<glyph unicode="+" horiz-adv-x="1150" d="M57 463v129h445v461h145v-461h445v-129h-445v-463h-145v463h-445z" />
<glyph unicode="," horiz-adv-x="444" d="M51 -242q60 66 88 124t26 96.5t-24 66.5q-38 49 -12 103.5t88 54.5q65 0 95 -62q40 -83 -17 -210q-52 -116 -176 -232z" />
<glyph unicode="-" horiz-adv-x="671" d="M98 449v122h475v-122h-475z" />
<glyph unicode="." horiz-adv-x="444" d="M111 94q0 46 32 78.5t78 32.5q47 0 80 -32.5t33 -78.5t-33 -78t-80 -32q-46 0 -78 32t-32 78z" />
<glyph unicode="/" horiz-adv-x="851" d="M96 0l529 1382h145l-526 -1382h-148z" />
<glyph unicode="0" horiz-adv-x="1259" d="M113 518q0 125 43 230t116 175t169.5 109t203.5 39q242 0 373 -144t131 -382q0 -127 -43.5 -234t-117.5 -178.5t-172 -111t-208 -39.5q-225 0 -360 136.5t-135 399.5zM268 532q0 -186 89 -302.5t266 -116.5q154 0 261 115.5t107 299.5q0 183 -91.5 298.5t-264.5 115.5 q-156 0 -261.5 -112.5t-105.5 -297.5z" />
<glyph unicode="1" horiz-adv-x="688" d="M57 936l301 117h127v-1053h-157v905l-242 -102z" />
<glyph unicode="2" horiz-adv-x="987" d="M117 0v123l297 250q135 115 192.5 188.5t57.5 161.5q0 98 -61.5 157.5t-172.5 59.5q-69 0 -141.5 -23.5t-122.5 -54.5l-23 133q148 74 316 74q178 0 274 -87.5t96 -231.5q0 -110 -62.5 -206.5t-199.5 -209.5l-243 -199l-2 -4q123 8 557 8v-139h-762z" />
<glyph unicode="3" horiz-adv-x="946" d="M100 -389l17 139q84 -24 176 -24q175 0 270.5 85t95.5 220q0 161 -129.5 231.5t-355.5 48.5v123q214 0 335.5 72.5t121.5 214.5q0 102 -65.5 160.5t-178.5 58.5q-130 0 -246 -63l-14 133q136 59 287 59q188 0 283.5 -92t95.5 -232q0 -118 -70 -208t-188 -136v-2 q133 -22 211.5 -116t78.5 -228q0 -98 -37.5 -183t-106.5 -147.5t-174 -98.5t-233 -36q-81 0 -174 21z" />
<glyph unicode="4" horiz-adv-x="1105" d="M31 127l587 928h201v-916h258v-139h-258v-399h-151v399h-611zM182 135q129 4 486 4v762h-2z" />
<glyph unicode="5" horiz-adv-x="960" d="M129 -399l16 143q68 -14 140 -14q192 0 295.5 89t103.5 230q0 142 -106.5 232t-298.5 90q-66 0 -107 -2v684h633v-150h-488v-399q253 0 392 -119t139 -309q0 -210 -162 -348t-414 -138q-53 0 -143 11z" />
<glyph unicode="6" horiz-adv-x="1191" d="M147 569q0 218 54 387t151 275t226.5 160.5t285.5 54.5q40 0 86 -4v-135q-66 8 -104 8q-224 0 -353 -135.5t-171 -376.5q-2 -13 -8 -41.5t-9 -44.5l2 -2q48 86 141 135t214 49q196 0 309.5 -117.5t113.5 -312.5q0 -214 -135 -350.5t-352 -136.5q-214 0 -332.5 156 t-118.5 431zM324 461q0 -69 18.5 -131t54 -111.5t94 -78.5t132.5 -29q134 0 215.5 93.5t81.5 237.5q0 149 -78 235.5t-213 86.5q-74 0 -133.5 -26t-96 -69t-56 -96.5t-19.5 -111.5z" />
<glyph unicode="7" horiz-adv-x="940" d="M53 903v150h826v-131q-279 -609 -443 -1321h-176q177 699 447 1306q-57 -4 -654 -4z" />
<glyph unicode="8" horiz-adv-x="1122" d="M127 330q0 56 18 107t44 89.5t68 77.5t78.5 65.5t86.5 57.5l-2 2q-136 79 -204.5 166t-68.5 201q0 158 116.5 257t307.5 99q183 0 290.5 -91t107.5 -235q0 -109 -67 -196t-214 -178q68 -39 114 -72t94.5 -81.5t73.5 -109t25 -131.5q0 -117 -62.5 -204t-164 -129.5 t-225.5 -42.5q-200 0 -308 96.5t-108 251.5zM289 348q0 -107 73.5 -172t200.5 -65q114 0 191 60t77 163q0 54 -19.5 99.5t-59.5 85t-88 72.5t-119 71h-2q-124 -75 -189 -148.5t-65 -165.5zM309 1108q0 -87 62.5 -153.5t193.5 -139.5h2q132 84 186 148.5t54 146.5 q0 93 -65 155t-181 62t-184 -62.5t-68 -156.5z" />
<glyph unicode="9" horiz-adv-x="1191" d="M109 582q0 210 132.5 348.5t346.5 138.5q210 0 334.5 -148t124.5 -446q0 -217 -53 -386.5t-150.5 -278t-231.5 -164.5t-299 -56q-47 0 -118 11v145q70 -18 129 -18q225 0 353 120t181 357q13 63 19 112h-3q-52 -77 -143.5 -122t-202.5 -45q-195 0 -307 116.5t-112 315.5z M272 610q0 -155 76.5 -239t216.5 -84q132 0 217.5 85t85.5 199q0 167 -78 268t-221 101q-131 0 -214 -95t-83 -235z" />
<glyph unicode=":" horiz-adv-x="512" d="M145 94q0 46 32.5 78.5t78.5 32.5t78.5 -32.5t32.5 -78.5t-32.5 -78t-78.5 -32t-78.5 32t-32.5 78zM145 700q0 46 32.5 79.5t78.5 33.5t78.5 -33.5t32.5 -79.5t-32.5 -78t-78.5 -32t-78.5 32t-32.5 78z" />
<glyph unicode=";" horiz-adv-x="512" d="M88 -242q61 66 89 124t25.5 96t-24.5 67q-37 49 -11 103.5t87 54.5q65 0 95 -62q41 -83 -16 -210q-52 -116 -177 -232zM145 700q0 46 32.5 79.5t78.5 33.5t78.5 -33.5t32.5 -79.5t-32.5 -78t-78.5 -32t-78.5 32t-32.5 78z" />
<glyph unicode="&#x3c;" horiz-adv-x="1021" d="M127 514l645 584l98 -99l-546 -483l546 -467l-98 -106z" />
<glyph unicode="=" horiz-adv-x="1212" d="M154 289v129h905v-129h-905zM154 623v129h905v-129h-905z" />
<glyph unicode="&#x3e;" horiz-adv-x="1021" d="M154 41l546 483l-546 467l98 107l645 -572l-645 -583z" />
<glyph unicode="?" horiz-adv-x="858" d="M164 1311l18 139q241 -15 392 -125.5t151 -263.5q0 -49 -14.5 -93.5t-38 -79t-53 -67.5t-60.5 -63.5t-60 -62.5t-51 -69.5t-34 -80t-8.5 -98t24.5 -119.5h-151q-29 84 -29.5 157t22 125.5t56.5 98t73.5 85.5t73.5 77t57 81.5t23 91.5q0 105 -110 179t-281 88zM252 90 q0 46 32 77.5t78 31.5t77.5 -31.5t31.5 -77.5q0 -44 -31.5 -75t-77.5 -31t-78 31t-32 75z" />
<glyph unicode="@" horiz-adv-x="1724" d="M156 635q0 165 62 311t166 247t244 159.5t292 58.5q154 0 278.5 -48.5t204 -132t122 -192t42.5 -231.5q0 -224 -106 -339.5t-283 -115.5q-110 0 -158 60t-33 141h-6q-28 -77 -103 -139t-167 -62q-96 0 -138.5 58.5t-42.5 173.5q0 131 45.5 237.5t139 172t221.5 65.5 q98 0 225 -23l-65 -362q-20 -110 8.5 -158.5t101.5 -48.5q224 0 224 334q0 97 -31 183.5t-92.5 156t-162.5 110.5t-231 41q-127 0 -240.5 -48t-197 -132.5t-132 -205t-48.5 -259.5q0 -250 148.5 -407.5t406.5 -157.5q152 0 291 45v-125q-128 -41 -310 -41q-205 0 -359 86 t-235 238.5t-81 349.5zM668 610q0 -139 77 -139q83 0 150.5 105t101.5 280l19 86q-39 10 -111 10q-60 0 -108 -33.5t-75 -86t-40.5 -110t-13.5 -112.5z" />
<glyph unicode="A" horiz-adv-x="1251" d="M27 0l514 1382h170l514 -1382h-178l-121 340h-615l-123 -340h-161zM354 465h529l-201 545q-38 99 -61 202h-5q-22 -95 -61 -200z" />
<glyph unicode="B" horiz-adv-x="1159" d="M186 0v1382q329 7 385 7q220 0 331.5 -86.5t111.5 -241.5q0 -114 -71.5 -204t-188.5 -124v-4q145 -22 219 -112t74 -209q0 -50 -12.5 -101t-48.5 -109t-91.5 -102t-152.5 -73t-222 -29q-49 0 -178.5 3t-155.5 3zM344 133q74 -12 188 -12q176 0 263.5 77t87.5 205 q0 252 -406 252q-100 0 -133 -2v-520zM344 776q43 -2 131 -2q183 0 279 68t96 192q0 109 -68 168.5t-239 59.5q-52 0 -199 -5v-481z" />
<glyph unicode="C" horiz-adv-x="1208" d="M100 659q0 127 24.5 236.5t77 202t130 158t190 102.5t250.5 37q153 0 320 -41l-17 -146q-177 54 -330 54q-122 0 -215 -45.5t-149 -126t-83.5 -183t-27.5 -223.5q0 -272 123.5 -416.5t372.5 -144.5q79 0 170 21t156 53l16 -140q-172 -73 -383 -73q-312 0 -468.5 179 t-156.5 496z" />
<glyph unicode="D" horiz-adv-x="1398" d="M186 0v1382q48 0 186 3.5t214 3.5q344 0 527 -169t183 -515q0 -175 -57 -311t-160.5 -223t-244.5 -132t-312 -45q-75 0 -184 3t-152 3zM344 137q96 -14 199 -14q132 0 239 34.5t186 103t122 179t43 254.5q0 282 -141.5 425t-422.5 143q-33 0 -225 -7v-1118z" />
<glyph unicode="E" d="M186 0v1382h697v-127h-539v-479h512v-127h-512v-518h539v-131h-697z" />
<glyph unicode="F" horiz-adv-x="962" d="M186 0v1382h693v-129h-535v-483h506v-127h-506v-643h-158z" />
<glyph unicode="G" horiz-adv-x="1402" d="M94 666q0 211 87 376.5t255.5 262t392.5 96.5q185 0 377 -60l-24 -147q-184 74 -369 74q-111 0 -209.5 -36.5t-176 -106.5t-122.5 -183t-45 -256q0 -269 147 -419t394 -150q143 0 268 41v538h158v-637q-210 -77 -451 -77q-311 0 -496.5 182.5t-185.5 501.5z" />
<glyph unicode="H" horiz-adv-x="1437" d="M186 0v1382h158v-600h752v600h155v-1382h-155v651h-752v-651h-158z" />
<glyph unicode="I" horiz-adv-x="530" d="M186 0v1382h158v-1382h-158z" />
<glyph unicode="J" horiz-adv-x="669" d="M2 2v141q67 -24 148 -24q61 0 98 19t58.5 73.5t21.5 150.5v1020h155v-1032q0 -180 -78.5 -272t-254.5 -92q-66 0 -148 16z" />
<glyph unicode="K" horiz-adv-x="1185" d="M186 0v1382h158v-661l590 661h194l-614 -669l635 -713h-217l-588 694v-694h-158z" />
<glyph unicode="L" horiz-adv-x="870" d="M186 0v1382h158v-1249h512v-133h-670z" />
<glyph unicode="M" horiz-adv-x="1826" d="M113 0l196 1382h199l315 -933q60 -172 78 -269h4q22 102 76 254l324 948h204l205 -1382h-166l-123 852q-22 151 -43 346h-4q-33 -134 -67 -231l-324 -967h-178l-307 905q-71 202 -88 293h-2q-4 -69 -37 -362l-101 -836h-161z" />
<glyph unicode="N" horiz-adv-x="1456" d="M186 0v1382h209l566 -897q60 -98 169 -295q-14 322 -14 814v378h154v-1382h-209l-576 918q-81 131 -157 282q12 -316 12 -776v-424h-154z" />
<glyph unicode="O" horiz-adv-x="1443" d="M92 676q0 136 33 253.5t93 203t141 146.5t178 91.5t204 30.5q284 0 447.5 -182t163.5 -512q0 -136 -33 -253t-92.5 -203t-140.5 -147t-178 -91.5t-203 -30.5q-302 0 -457.5 185.5t-155.5 508.5zM260 705q0 -269 117.5 -427.5t343.5 -158.5q92 0 174.5 37t147.5 106 t103 178t38 242q0 278 -121.5 431t-341.5 153q-92 0 -175 -37.5t-147 -106.5t-101.5 -177t-37.5 -240z" />
<glyph unicode="P" horiz-adv-x="1067" d="M186 0v1382q172 7 326 7q229 0 355 -107t126 -287q0 -201 -150.5 -328.5t-379.5 -127.5q-63 0 -119 6v-545h-158zM344 678q74 -8 125 -8q166 1 263 83.5t97 219.5q0 287 -337 287q-84 0 -148 -3v-579z" />
<glyph unicode="Q" horiz-adv-x="1441" d="M92 676q0 136 33 253.5t93 203t141 146.5t178 91.5t204 30.5q284 0 447.5 -182t163.5 -512q0 -136 -33 -253t-92.5 -203t-140.5 -147t-178 -91.5t-203 -30.5q-302 0 -457.5 185.5t-155.5 508.5zM260 705q0 -269 117.5 -427.5t343.5 -158.5q92 0 174.5 37t147.5 106 t103 178t38 242q0 278 -121.5 431t-341.5 153q-92 0 -175 -37.5t-147 -106.5t-101.5 -177t-37.5 -240zM672 -154q54 7 106 7q34 0 66 -3q85 -7 146.5 -23.5t137 -32t144.5 -22.5q26 -3 56 -3q51 0 114 8v-142q-66 -10 -131 -10q-28 0 -55 2q-91 6 -154 22.5t-138 33.5 t-138 25q-27 3 -58 3q-43 0 -96 -6v141z" />
<glyph unicode="R" horiz-adv-x="1122" d="M186 0v1382q154 7 326 7q80 0 147.5 -11.5t125.5 -37.5t98 -65.5t63 -99t23 -135.5q0 -178 -126 -280.5t-323 -110.5q17 -21 59.5 -70.5t61.5 -72.5l416 -506h-203l-504 639h-6v-639h-158zM344 760q46 -4 125 -4q157 0 246.5 72t89.5 190q0 131 -81.5 188.5t-246.5 57.5 q-61 0 -133 -7v-497z" />
<glyph unicode="S" horiz-adv-x="1032" d="M113 1018q0 169 128.5 276t350.5 107q110 0 248 -27l-9 -141q-125 37 -249 37q-148 0 -228 -64t-80 -172q0 -64 35.5 -111.5t92 -78t124.5 -57t136.5 -57.5t125 -71t92 -106t35.5 -154q0 -186 -136 -301.5t-367 -115.5q-148 0 -277 34l8 154q141 -51 283 -51 q69 0 126.5 14.5t103.5 44.5t72 81.5t26 119.5q0 66 -35.5 115t-92 79.5t-124.5 57t-136.5 57t-125 70t-92 106t-35.5 154.5z" />
<glyph unicode="T" horiz-adv-x="1062" d="M39 1251v131h985v-131h-416v-1251h-155v1251h-414z" />
<glyph unicode="U" horiz-adv-x="1427" d="M186 459v923h158v-909q0 -64 9 -114.5t33.5 -98.5t64.5 -79.5t105.5 -50.5t152.5 -19q195 0 286.5 92.5t91.5 308.5v870h154v-858q0 -266 -138.5 -404t-406.5 -138q-89 0 -162.5 14t-126 38.5t-92 60.5t-63.5 76t-39.5 89.5t-21 97t-5.5 101.5z" />
<glyph unicode="V" horiz-adv-x="1255" d="M29 1382h176l323 -919q60 -163 97 -295h2q43 161 100 307l334 907h164l-518 -1382h-172z" />
<glyph unicode="W" horiz-adv-x="1949" d="M78 1382h168l250 -954q38 -142 57 -260h2q28 147 57 248l273 966h184l287 -979q35 -124 55 -233h2q15 92 45 209l260 1003h154l-369 -1382h-194l-287 995q-31 105 -51 222h-2q-16 -98 -49 -222l-281 -995h-190z" />
<glyph unicode="X" horiz-adv-x="1202" d="M41 0l459 715l-430 667h180l346 -546l340 546h176l-422 -659l471 -723h-194l-375 596l-371 -596h-180z" />
<glyph unicode="Y" horiz-adv-x="1079" d="M25 1382h172l235 -493q48 -101 107 -244h2q28 72 121 266l227 471h166l-443 -880v-502h-155v500z" />
<glyph unicode="Z" horiz-adv-x="1105" d="M94 0v115l613 952q13 19 55 82t67 98q-148 -4 -323 -4h-389v139h891v-116l-646 -996q-13 -21 -27.5 -42.5t-32 -47.5t-28.5 -43q45 6 363 6h377v-143h-920z" />
<glyph unicode="[" horiz-adv-x="653" d="M188 -401v1976h387v-117h-245v-1741h245v-118h-387z" />
<glyph unicode="\" horiz-adv-x="835" d="M80 1382h139l533 -1382h-144z" />
<glyph unicode="]" horiz-adv-x="653" d="M80 -283h244v1741h-244v117h387v-1976h-387v118z" />
<glyph unicode="^" horiz-adv-x="1095" d="M135 764l340 618h127l354 -614l-114 -61l-307 557l-291 -557z" />
<glyph unicode="_" horiz-adv-x="1024" d="M0 -395h1024v-121h-1024v121z" />
<glyph unicode="`" horiz-adv-x="753" d="M205 1393l86 106l266 -227l-70 -86z" />
<glyph unicode="a" horiz-adv-x="1093" d="M102 229q0 163 163.5 262t455.5 99v84q0 121 -52.5 180t-179.5 59q-76 0 -160.5 -23t-150.5 -65l-14 136q167 75 352 75q103 0 174.5 -24t111.5 -70t57.5 -103.5t17.5 -133.5v-582q94 -15 178 -21v-88q-119 -16 -243 -16q-41 0 -83 2q0 156 10 215h-4q-38 -101 -133 -167 t-221 -66q-125 0 -202 64.5t-77 182.5zM256 258q0 -69 45.5 -110.5t120.5 -41.5q87 0 156.5 52.5t106 133t36.5 169.5v16q-110 0 -195 -13.5t-135 -35t-81.5 -51.5t-42.5 -58.5t-11 -60.5z" />
<glyph unicode="b" horiz-adv-x="1161" d="M27 1393v88q116 16 243 16q42 0 86 -2v-516q0 -104 -16 -186l4 -2q41 115 134 180t212 65q181 0 279 -123t98 -358q0 -268 -141 -417.5t-383 -149.5q-198 0 -338 39v1345q-94 15 -178 21zM356 135q85 -26 201 -26q164 0 256 106t92 328q0 176 -61.5 271t-184.5 95 q-73 0 -132.5 -39.5t-95.5 -102t-55.5 -134t-19.5 -141.5v-357z" />
<glyph unicode="c" horiz-adv-x="901" d="M90 473q0 257 128.5 408t371.5 151q126 0 239 -35l-16 -135q-113 45 -233 45q-161 0 -244.5 -109t-83.5 -298q0 -84 14.5 -149t48 -119t96.5 -83.5t152 -29.5q145 0 256 57l15 -133q-139 -55 -304 -55q-72 0 -133 13t-119.5 47t-98.5 87.5t-64.5 139.5t-24.5 198z" />
<glyph unicode="d" horiz-adv-x="1171" d="M90 463q0 268 140.5 417.5t381.5 149.5q72 0 189 -10v352q-94 15 -178 21v88q116 16 243 16q42 0 86 -2v-1372q94 -15 178 -21v-88q-116 -16 -243 -16q-42 0 -86 2q0 130 18 221l-4 2q-43 -111 -136 -176t-214 -65q-185 0 -280 126.5t-95 354.5zM252 475 q0 -176 61.5 -271t184.5 -95q73 0 132.5 39.5t95.5 102t55.5 134t19.5 141.5v359q-105 24 -201 24q-164 0 -256 -106t-92 -328z" />
<glyph unicode="e" d="M90 504q0 153 52 273t154.5 189.5t240.5 69.5q102 0 180 -33.5t124.5 -92.5t69.5 -133t23 -161q0 -44 -4 -75h-680q-1 -17 -1 -33q-1 -199 79 -295q86 -104 260 -104q168 0 295 65l14 -131q-147 -61 -336 -61q-471 0 -471 522zM258 655h516v10q0 113 -64 183 q-66 72 -182 72q-106 0 -178.5 -72t-91.5 -193z" />
<glyph unicode="f" horiz-adv-x="712" d="M14 897v121h222v72q0 210 99 312.5t286 102.5q85 0 167 -18l-14 -129q-70 22 -160 22q-117 0 -171 -69t-54 -217v-76h301v-121h-301v-897h-153v897h-222z" />
<glyph unicode="g" horiz-adv-x="1138" d="M90 463q0 270 141.5 419.5t389.5 149.5q172 0 331 -28v-1100q0 -59 -11.5 -113t-46 -114t-89 -103t-149.5 -71.5t-220 -28.5q-162 0 -291 37l13 155q140 -55 295 -55q174 0 261 76t87 256v90q0 124 14 188l-4 2q-43 -111 -134.5 -176t-209.5 -65q-182 0 -279.5 122 t-97.5 359zM252 475q0 -176 61.5 -271t184.5 -95q73 0 132.5 39.5t95.5 102t55.5 134.5t19.5 143v359q-93 22 -201 22q-164 0 -256 -106t-92 -328z" />
<glyph unicode="h" horiz-adv-x="1200" d="M27 1393v88q116 16 243 16q42 0 86 -2v-498q0 -134 -16 -202l4 -2q45 114 139.5 179.5t223.5 65.5q85 0 146 -25t95.5 -71.5t50 -103t15.5 -127.5v-711h-154v659q0 128 -42.5 190t-149.5 62q-136 0 -224 -120t-88 -302v-489h-151v1372q-94 15 -178 21z" />
<glyph unicode="i" horiz-adv-x="573" d="M57 915v89q116 16 244 16q42 0 86 -2v-1018h-151v895q-82 13 -179 20zM207 1307q0 43 30.5 73.5t73.5 30.5q44 0 75.5 -30.5t31.5 -73.5q0 -44 -31.5 -74.5t-75.5 -30.5q-43 0 -73.5 30.5t-30.5 74.5z" />
<glyph unicode="j" horiz-adv-x="581" d="M-78 -506l15 135q67 -24 133 -24q101 0 136.5 53t35.5 203v1034q-82 13 -179 20v89q119 16 246 16q43 0 86 -2v-1147q0 -209 -74.5 -302t-261.5 -93q-75 0 -137 18zM213 1307q0 43 31 73.5t75 30.5q43 0 74 -30.5t31 -73.5q0 -44 -31 -74.5t-74 -30.5q-44 0 -75 30.5 t-31 74.5z" />
<glyph unicode="k" horiz-adv-x="1003" d="M27 1393v88q116 16 243 16q42 0 86 -2v-934l383 457h187l-404 -463l436 -555h-200l-402 535v-535h-151v1372q-94 15 -178 21z" />
<glyph unicode="l" horiz-adv-x="542" d="M27 1393v88q116 16 243 16q42 0 86 -2v-1495h-151v1372q-94 15 -178 21z" />
<glyph unicode="m" horiz-adv-x="1857" d="M57 915v89q116 16 244 16q42 0 86 -2q0 -124 -16 -225l2 -2q45 114 140.5 180.5t219.5 66.5q65 0 116.5 -18t81 -44.5t49.5 -61.5t27.5 -63.5t8.5 -55.5q13 31 32 62t50.5 64.5t69.5 58.5t90.5 41.5t111.5 16.5q301 0 301 -331v-707h-153v657q0 126 -39.5 190t-143.5 64 q-124 0 -214.5 -117.5t-90.5 -308.5v-485h-153v659q0 58 -7 99t-25.5 78t-56.5 56t-94 19q-129 0 -218 -120.5t-89 -305.5v-485h-151v895q-82 13 -179 20z" />
<glyph unicode="n" horiz-adv-x="1230" d="M57 915v89q116 16 244 16q42 0 86 -2q0 -134 -18 -225l4 -2q46 113 140.5 180t223.5 67q85 0 146 -25t95.5 -71.5t50 -103t15.5 -127.5v-711h-153v659q0 127 -43 189.5t-150 62.5q-136 0 -223.5 -120t-87.5 -302v-489h-151v895q-82 13 -179 20z" />
<glyph unicode="o" horiz-adv-x="1110" d="M86 504q0 109 33.5 206t94.5 169.5t153 114.5t204 42q96 0 175.5 -28t142.5 -86.5t98 -159t35 -236.5q0 -152 -58 -275t-170 -196t-259 -73q-210 0 -329.5 131t-119.5 391zM246 516q0 -195 80.5 -299t230.5 -104q130 0 217.5 102t87.5 301q0 187 -77.5 290t-227.5 103 q-62 0 -116.5 -23.5t-98.5 -70t-70 -124t-26 -175.5z" />
<glyph unicode="p" horiz-adv-x="1191" d="M57 915v89q117 16 243 16q42 0 85 -2q0 -154 -16 -221l4 -2q43 112 135.5 176.5t214.5 64.5q180 0 277.5 -123.5t97.5 -357.5q0 -271 -139 -419t-381 -148q-109 0 -191 14v-512h-151v1405q-82 13 -179 20zM387 135q88 -26 201 -26q164 0 256 106t92 328q0 176 -61.5 271 t-184.5 95q-73 0 -132.5 -39.5t-95.5 -102t-55.5 -134t-19.5 -141.5v-357z" />
<glyph unicode="q" horiz-adv-x="1142" d="M94 461q0 272 141.5 421.5t389.5 149.5q172 0 331 -28v-1391q93 -15 179 -21v-88q-139 -15 -261 -15q-36 0 -71 1v555q0 105 14 176h-4q-42 -110 -133 -174.5t-209 -64.5q-182 0 -279.5 121.5t-97.5 357.5zM256 475q0 -176 60.5 -271t183.5 -95q73 0 132.5 39.5t95.5 102 t55.5 134.5t19.5 143v359q-102 24 -199 24q-165 0 -256.5 -106.5t-91.5 -329.5z" />
<glyph unicode="r" horiz-adv-x="774" d="M57 915v89q116 16 244 16q42 0 86 -2q0 -118 -25 -256l5 -2q17 60 44.5 110.5t69.5 92.5q41 42 105 62q44 14 95 14q23 0 46 -3l-8 -151q-30 5 -57 5q-124 0 -192 -100q-84 -122 -83 -382v-408h-151v895q-82 13 -179 20z" />
<glyph unicode="s" horiz-adv-x="876" d="M111 737q0 132 104.5 215.5t292.5 83.5q84 0 199 -22l-5 -133q-101 34 -210 34q-111 0 -167.5 -42.5t-56.5 -118.5q0 -49 27.5 -83t71.5 -53t97 -34.5t106 -35t97 -47t71.5 -78t27.5 -120.5q0 -139 -115.5 -230t-310.5 -91q-113 0 -215 20l4 141q117 -32 227 -32 q112 0 181 46.5t69 125.5q0 49 -27.5 82.5t-71 51.5t-96 32.5t-105.5 34t-96.5 47.5t-71 80.5t-27.5 125.5z" />
<glyph unicode="t" horiz-adv-x="757" d="M4 897v121h221v338l154 43v-381h299v-121h-299v-549q0 -136 31 -182.5t122 -46.5q84 0 146 18v-133q-88 -20 -189 -20q-150 0 -207 69t-57 232v612h-221z" />
<glyph unicode="u" horiz-adv-x="1255" d="M49 915v89q121 16 247 16q42 0 85 -2v-660q0 -128 42.5 -190t149.5 -62q136 0 223 119.5t87 302.5v490h153v-895q94 -15 178 -21v-88q-116 -16 -243 -16q-42 0 -86 2q0 130 18 225l-4 2q-46 -113 -140.5 -180t-223.5 -67q-308 0 -308 327v588q-83 14 -178 20z" />
<glyph unicode="v" horiz-adv-x="978" d="M20 1018h175l237 -664q13 -35 57 -180h3q30 104 55 172l244 672h167l-393 -1018h-159z" />
<glyph unicode="w" horiz-adv-x="1622" d="M37 1018h172l174 -606q54 -180 70 -250h2q38 156 69 250l195 606h174l197 -604q49 -151 73 -254h4q17 76 70 250l182 608h164l-332 -1018h-178l-223 657q-20 54 -57 195h-2q-17 -74 -74 -256l-187 -596h-178z" />
<glyph unicode="x" horiz-adv-x="1054" d="M49 0l385 510l-364 508h190l272 -402l279 402h176l-364 -502l381 -516h-203l-281 410l-280 -410h-191z" />
<glyph unicode="y" horiz-adv-x="964" d="M-43 -514l16 141q59 -20 127 -20q94 0 150 56.5t115 215.5l47 121l-389 1018h176l213 -584q26 -73 77 -241h3q22 81 102 309l182 516h168l-426 -1124q-47 -123 -86.5 -198.5t-90 -127t-110.5 -72t-145 -20.5q-61 0 -129 10z" />
<glyph unicode="z" horiz-adv-x="913" d="M100 0v109l518 776q-132 -4 -288 -4h-219v137h684v-107l-514 -774q122 4 294 4h230v-141h-705z" />
<glyph unicode="{" horiz-adv-x="681" d="M61 590v123q129 8 175.5 53.5t46.5 167.5v266q0 375 297 375h34v-117q-107 0 -148.5 -55t-41.5 -197v-262q0 -254 -191 -291v-2q94 -15 142.5 -91t48.5 -204v-387q0 -142 41.5 -197t148.5 -55v-118h-34q-160 0 -228.5 92t-68.5 284v392q0 117 -49 166.5t-173 56.5z" />
<glyph unicode="|" horiz-adv-x="573" d="M225 -512v2048h121v-2048h-121z" />
<glyph unicode="}" horiz-adv-x="673" d="M80 -283q109 0 150.5 54.5t41.5 197.5v387q0 128 48.5 204t142.5 91v2q-96 13 -143.5 86t-47.5 195v272q0 143 -41.5 197.5t-150.5 54.5v117h35q299 0 299 -375v-256q0 -130 45.5 -176.5t175.5 -54.5v-123q-124 -7 -172.5 -56.5t-48.5 -166.5v-392q0 -191 -69.5 -283.5 t-229.5 -92.5h-35v118z" />
<glyph unicode="~" horiz-adv-x="1191" d="M111 582q122 110 264 110q57 0 108 -14t89 -34t74.5 -39.5t81.5 -33.5t93 -14t103.5 27.5t101.5 68.5l55 -106q-127 -123 -272 -123q-70 0 -135.5 21t-107.5 46.5t-97.5 46.5t-106.5 21q-101 0 -200 -86z" />
<glyph unicode="&#xa1;" horiz-adv-x="614" d="M195 930q0 44 32 76t78 32q45 0 77 -32t32 -76q0 -45 -32 -77t-77 -32t-77.5 32.5t-32.5 76.5zM215 -420l25 1112h127l26 -1112h-178z" />
<glyph unicode="&#xa2;" horiz-adv-x="933" d="M90 563q0 199 109 333t295 159v188h122v-180q122 -3 226 -45l-13 -135q-106 53 -241 53q-157 0 -247.5 -97t-90.5 -268q0 -77 17.5 -139.5t55.5 -113t105 -79t158 -28.5q140 0 250 65l12 -137q-110 -49 -232 -57v-221h-122v221q-193 15 -298.5 139.5t-105.5 341.5z" />
<glyph unicode="&#xa3;" horiz-adv-x="1017" d="M121 0v115q131 98 190.5 189.5t59.5 213.5q0 26 -13 176h-235v119h221q-22 189 -22 264q0 196 89 283.5t267 87.5q82 0 160 -16l-9 -127q-85 18 -153 18q-100 0 -151.5 -61t-51.5 -168q0 -28 4 -71t11 -107.5t10 -102.5h307v-119h-295q10 -102 10 -157q0 -130 -49 -221.5 t-160 -188.5q107 10 172 10h402v-137h-764z" />
<glyph unicode="&#xa4;" horiz-adv-x="1138" d="M88 -236q0 90 49.5 161t126.5 110q-102 47 -102 147q0 53 29 97.5t81 70.5q-71 42 -110 117.5t-39 175.5q0 167 120.5 280t321.5 113q81 0 154 -18h346v-121h-184q98 -76 98 -223q0 -170 -114.5 -276.5t-329.5 -106.5q-89 0 -138 16q-36 -15 -55.5 -40t-19.5 -54 q0 -44 44.5 -65t139.5 -21h199q165 0 255.5 -76.5t90.5 -210.5q0 -162 -152.5 -268.5t-386.5 -106.5q-196 0 -310 78t-114 221zM244 -209q0 -96 81.5 -148.5t213.5 -52.5q165 0 259.5 63.5t94.5 166.5q0 83 -58 128.5t-173 45.5h-209q-48 0 -66 2q-67 -34 -105 -87.5 t-38 -117.5zM276 659q0 -122 71.5 -187.5t201.5 -65.5q129 0 202.5 65.5t73.5 187.5t-70.5 190.5t-197.5 68.5q-130 0 -205.5 -72t-75.5 -187z" />
<glyph unicode="&#xa5;" horiz-adv-x="1204" d="M90 1382h172l234 -487q44 -88 106 -252h4q39 111 121 275l229 464h166l-405 -800h307v-109h-344v-151h344v-111h-344v-211h-156v211h-346v111h346v151h-346v109h307z" />
<glyph unicode="&#xa7;" horiz-adv-x="997" d="M156 743q0 83 36.5 156t96.5 121q-25 36 -42.5 87.5t-17.5 96.5q0 66 21 122t62 100t108 69t153 25q72 0 138 -15l-13 -131q-71 19 -133 19q-87 0 -130.5 -47t-43.5 -132q0 -44 24.5 -94.5t63.5 -100t86.5 -102.5t94.5 -110t86 -114.5t63.5 -124t24.5 -130.5 q0 -79 -36.5 -152t-95.5 -120q64 -95 64 -197q0 -59 -21 -113.5t-63 -100.5t-113.5 -73.5t-162.5 -27.5q-70 0 -148 16l14 140q73 -25 146 -25q94 0 140 49.5t46 130.5q0 45 -24.5 96.5t-64 101.5t-87.5 103t-96 110t-87.5 114t-64 123t-24.5 130zM301 760q0 -46 18.5 -94 t62 -108.5t86.5 -112t121 -140.5q24 -27 36 -41q27 22 45 67t18 91q0 56 -32 120t-71 112.5t-108 130.5t-110 137q-66 -53 -66 -162z" />
<glyph unicode="&#xa8;" horiz-adv-x="1118" d="M252 1346q0 40 28.5 68t69.5 28t70 -28t29 -68q0 -41 -29 -70t-70 -29t-69.5 29t-28.5 70zM637 1346q0 40 28.5 68t69.5 28q40 0 69.5 -28.5t29.5 -67.5q0 -41 -29.5 -70t-69.5 -29q-41 0 -69.5 29t-28.5 70z" />
<glyph unicode="&#xa9;" horiz-adv-x="1542" d="M84 684q0 186 91.5 343t248.5 248t344 91t343.5 -90t247.5 -246t91 -342q0 -139 -54 -265.5t-145 -217.5t-217.5 -145t-265.5 -54q-143 0 -270.5 53.5t-218 144t-143 216t-52.5 264.5zM211 688q0 -152 74 -281.5t202.5 -205.5t280.5 -76t280.5 75t202.5 203.5t74 280.5 q0 113 -44 217t-118.5 180t-177.5 121t-217 45q-152 0 -280 -74.5t-202.5 -203t-74.5 -281.5zM446 676q0 76 19.5 141t60 119t111.5 84.5t166 30.5q78 0 158 -25l-13 -115q-71 33 -153 33q-211 0 -211 -262q0 -246 202 -246q89 0 168 31l15 -109q-87 -34 -201 -34 q-165 0 -243.5 95.5t-78.5 256.5z" />
<glyph unicode="&#xaa;" horiz-adv-x="811" d="M106 872q0 111 106.5 177.5t295.5 66.5v39q0 133 -137 133q-117 0 -215 -53l-11 121q103 41 244 41q70 0 120.5 -18t78.5 -50.5t40.5 -70.5t12.5 -84q0 -50 -1 -176.5t-1 -176.5q19 -2 60 -7t59 -7v-78q-136 -19 -252 -10q0 55 12 110l-4 2q-19 -51 -79.5 -90t-127.5 -39 q-99 0 -150 46.5t-51 123.5zM240 893q0 -37 25 -59.5t69 -22.5t79.5 22t55 54t29.5 63.5t10 55.5v18q-268 0 -268 -131z" />
<glyph unicode="&#xab;" horiz-adv-x="1021" d="M121 502l239 360l113 -69l-199 -289l197 -285l-117 -72zM494 502l258 358l112 -69l-217 -287l213 -283l-115 -71z" />
<glyph unicode="&#xac;" horiz-adv-x="1058" d="M78 475v127h876v-455h-133v328h-743z" />
<glyph unicode="&#xad;" horiz-adv-x="671" d="M98 449v122h475v-122h-475z" />
<glyph unicode="&#xae;" horiz-adv-x="1150" d="M135 1087q0 182 128.5 309.5t311.5 127.5q185 0 312 -126.5t127 -310.5q0 -118 -59.5 -219t-161 -160t-218.5 -59q-187 0 -313.5 126t-126.5 312zM244 1090q0 -138 97 -239t234 -101t233.5 97.5t96.5 235.5q0 137 -97 238.5t-233 101.5q-138 0 -234.5 -97.5t-96.5 -235.5 zM430 854v471h152q157 0 157 -121q0 -59 -30.5 -94t-85.5 -43q20 -24 43 -63l94 -150h-113l-121 203h-6v-203h-90zM520 1116h31q48 0 71 22t23 54q0 33 -18 47t-60 14h-47v-137z" />
<glyph unicode="&#xaf;" horiz-adv-x="821" d="M180 1276v117h455v-117h-455z" />
<glyph unicode="&#xb0;" horiz-adv-x="759" d="M119 1253q0 114 78.5 184t183.5 70q124 0 190 -71.5t66 -178.5q0 -112 -80.5 -181.5t-187.5 -69.5q-115 0 -182.5 66.5t-67.5 180.5zM244 1255q0 -68 36 -106.5t95 -38.5q60 0 98.5 40.5t38.5 104.5q0 59 -32 103.5t-103 44.5q-58 0 -95.5 -41.5t-37.5 -106.5z" />
<glyph unicode="&#xb1;" horiz-adv-x="1163" d="M94 565v129h416v418h145v-418h416v-129h-416v-422h-145v422h-416zM102 16h959v-129h-959v129z" />
<glyph unicode="&#xb4;" horiz-adv-x="792" d="M209 1272l266 227l84 -106l-283 -207z" />
<glyph unicode="&#xb5;" horiz-adv-x="1269" d="M188 -510v1528h154v-651q0 -261 262 -261q150 0 236 120t86 302v490h153v-1018h-151q0 134 16 227l-4 2q-12 -34 -28.5 -64.5t-47 -64.5t-68.5 -58.5t-96 -41t-127 -16.5q-82 0 -144 26.5t-89 63.5l-4 -2q6 -55 6 -230v-352h-154z" />
<glyph unicode="&#xb6;" horiz-adv-x="1165" d="M143 956q0 184 124 305t321 121v-862q-110 -1 -196 33.5t-140 95t-81.5 138.5t-27.5 169zM588 -80h153v1462h291v-116h-147v-1463h-297v117z" />
<glyph unicode="&#xb7;" horiz-adv-x="450" d="M109 590q0 50 33.5 83.5t82.5 33.5t83 -33.5t34 -83.5q0 -48 -34 -82.5t-83 -34.5t-82.5 34.5t-33.5 82.5z" />
<glyph unicode="&#xb8;" horiz-adv-x="819" d="M334 -424q185 137 88 320h151q105 -222 -172 -385z" />
<glyph unicode="&#xba;" horiz-adv-x="854" d="M106 1044q0 158 90.5 256.5t233.5 98.5q46 0 87 -8.5t82.5 -32t71 -59t48 -95t18.5 -135.5q0 -165 -91.5 -264.5t-239.5 -99.5q-142 0 -221 81.5t-79 257.5zM244 1059q0 -47 8.5 -86.5t27 -75t53.5 -56t83 -20.5q82 0 132 60t50 174q0 99 -41 164t-133 65 q-74 0 -127 -56.5t-53 -168.5z" />
<glyph unicode="&#xbb;" horiz-adv-x="1021" d="M160 219l215 287l-213 282l114 72l252 -352l-258 -358zM549 217l201 289l-199 285l117 71l233 -354l-239 -361z" />
<glyph unicode="&#xbf;" horiz-adv-x="858" d="M133 -41q0 55 18 105t46.5 86t63 74t68.5 70t62 74t45 86t16 105.5t-24 132.5h150q29 -84 29.5 -156.5t-22 -125.5t-56.5 -98.5t-74 -85.5t-74 -77t-57 -82t-23 -92q0 -104 111 -178t282 -86l-20 -141q-241 17 -391 127.5t-150 261.5zM385 930q0 44 32.5 76t78.5 32 q44 0 76 -32t32 -76t-32 -76.5t-76 -32.5q-46 0 -78.5 32.5t-32.5 76.5z" />
<glyph unicode="&#xc0;" horiz-adv-x="1251" d="M27 0l514 1382h170l514 -1382h-178l-121 340h-615l-123 -340h-161zM354 465h529l-201 545q-38 99 -61 202h-5q-22 -95 -61 -200zM377 1704l86 106l266 -227l-70 -86z" />
<glyph unicode="&#xc1;" horiz-adv-x="1251" d="M27 0l514 1382h170l514 -1382h-178l-121 340h-615l-123 -340h-161zM354 465h529l-201 545q-38 99 -61 202h-5q-22 -95 -61 -200zM494 1583l266 227l84 -106l-283 -207z" />
<glyph unicode="&#xc2;" horiz-adv-x="1251" d="M27 0l514 1382h170l514 -1382h-178l-121 340h-615l-123 -340h-161zM354 465h529l-201 545q-38 99 -61 202h-5q-22 -95 -61 -200zM358 1593l269 195l280 -189l-71 -92l-211 142l-201 -142z" />
<glyph unicode="&#xc3;" horiz-adv-x="1251" d="M27 0l514 1382h170l514 -1382h-178l-121 340h-615l-123 -340h-161zM299 1675q82 82 190 82q45 0 87.5 -15t70 -33t64 -33t71.5 -15q74 0 142 68l39 -105q-34 -34 -85 -58t-104 -24q-48 0 -91 15t-70 33t-64 33t-74 15q-73 0 -137 -67zM354 465h529l-201 545 q-38 99 -61 202h-5q-22 -95 -61 -200z" />
<glyph unicode="&#xc4;" horiz-adv-x="1251" d="M27 0l514 1382h170l514 -1382h-178l-121 340h-615l-123 -340h-161zM334 1622q0 40 28.5 68t69.5 28t69.5 -28t28.5 -68q0 -41 -28.5 -69.5t-69.5 -28.5t-69.5 28.5t-28.5 69.5zM354 465h529l-201 545q-38 99 -61 202h-5q-22 -95 -61 -200zM719 1622q0 40 28.5 68t69.5 28 q40 0 69 -28t29 -68q0 -41 -29 -69.5t-69 -28.5q-41 0 -69.5 28.5t-28.5 69.5z" />
<glyph unicode="&#xc5;" horiz-adv-x="1251" d="M27 0l514 1382h170l514 -1382h-178l-121 340h-615l-123 -340h-161zM354 465h529l-201 545q-38 99 -61 202h-5q-22 -95 -61 -200zM408 1575q0 91 64.5 153t156.5 62q94 0 157.5 -61.5t63.5 -153.5q0 -88 -65 -151.5t-156 -63.5q-93 0 -157 61t-64 154zM514 1575 q0 -50 33 -84.5t82 -34.5t81.5 34.5t32.5 84.5t-32.5 84.5t-81.5 34.5t-82 -34.5t-33 -84.5z" />
<glyph unicode="&#xc6;" horiz-adv-x="1595" d="M-90 0l752 1382h759v-127h-526v-479h506v-127h-506v-518h547v-131h-701v346h-481l-186 -346h-164zM322 471h419v778h-6q-70 -148 -139 -274z" />
<glyph unicode="&#xc7;" horiz-adv-x="1208" d="M100 659q0 127 24.5 236.5t77 202t130 158t190 102.5t250.5 37q153 0 320 -41l-17 -146q-177 54 -330 54q-122 0 -215 -45.5t-149 -126t-83.5 -183t-27.5 -223.5q0 -272 123.5 -416.5t372.5 -144.5q79 0 170 21t156 53l16 -140q-172 -73 -383 -73q-312 0 -468.5 179 t-156.5 496zM530 -424q185 137 88 320h152q105 -222 -172 -385z" />
<glyph unicode="&#xc8;" d="M186 0v1382h697v-127h-539v-479h512v-127h-512v-518h539v-131h-697zM299 1704l86 106l266 -227l-69 -86z" />
<glyph unicode="&#xc9;" d="M186 0v1382h697v-127h-539v-479h512v-127h-512v-518h539v-131h-697zM408 1583l266 227l84 -106l-283 -207z" />
<glyph unicode="&#xca;" d="M186 0v1382h697v-127h-539v-479h512v-127h-512v-518h539v-131h-697zM254 1593l268 195l281 -189l-72 -92l-211 142l-201 -142z" />
<glyph unicode="&#xcb;" d="M186 0v1382h697v-127h-539v-479h512v-127h-512v-518h539v-131h-697zM231 1622q0 40 29 68t70 28t69.5 -28t28.5 -68q0 -41 -28.5 -69.5t-69.5 -28.5t-70 28.5t-29 69.5zM616 1622q0 40 29 68t70 28q40 0 69 -28t29 -68q0 -41 -29 -69.5t-69 -28.5q-41 0 -70 28.5 t-29 69.5z" />
<glyph unicode="&#xcc;" horiz-adv-x="530" d="M43 1702l86 108l266 -227l-69 -86zM186 0v1382h158v-1382h-158z" />
<glyph unicode="&#xcd;" horiz-adv-x="530" d="M125 1583l266 225l86 -104l-282 -207zM186 0v1382h158v-1382h-158z" />
<glyph unicode="&#xce;" horiz-adv-x="530" d="M-2 1593l268 195l279 -191l-70 -92l-211 144l-203 -144zM186 0v1382h158v-1382h-158z" />
<glyph unicode="&#xcf;" horiz-adv-x="530" d="M-27 1622q0 40 28.5 68t68.5 28q41 0 69.5 -28t28.5 -68q0 -41 -28.5 -69.5t-69.5 -28.5q-40 0 -68.5 28.5t-28.5 69.5zM186 0v1382h158v-1382h-158zM356 1622q0 39 29.5 67.5t69.5 28.5q41 0 69.5 -28t28.5 -68q0 -41 -28.5 -69.5t-69.5 -28.5q-40 0 -69.5 28.5 t-29.5 69.5z" />
<glyph unicode="&#xd1;" horiz-adv-x="1456" d="M186 0v1382h209l566 -897q60 -98 169 -295q-14 322 -14 814v378h154v-1382h-209l-576 918q-81 131 -157 282q12 -316 12 -776v-424h-154zM389 1675q82 82 191 82q57 0 107.5 -24t96 -48t88.5 -24q74 0 142 68l39 -105q-34 -34 -85 -58t-104 -24q-48 0 -91 15t-70 33 t-64 33t-74 15q-73 0 -137 -67z" />
<glyph unicode="&#xd2;" horiz-adv-x="1443" d="M92 676q0 136 33 253.5t93 203t141 146.5t178 91.5t204 30.5q284 0 447.5 -182t163.5 -512q0 -136 -33 -253t-92.5 -203t-140.5 -147t-178 -91.5t-203 -30.5q-302 0 -457.5 185.5t-155.5 508.5zM260 705q0 -269 117.5 -427.5t343.5 -158.5q92 0 174.5 37t147.5 106 t103 178t38 242q0 278 -121.5 431t-341.5 153q-92 0 -175 -37.5t-147 -106.5t-101.5 -177t-37.5 -240zM489 1704l86 106l267 -227l-70 -86z" />
<glyph unicode="&#xd3;" horiz-adv-x="1443" d="M92 676q0 136 33 253.5t93 203t141 146.5t178 91.5t204 30.5q284 0 447.5 -182t163.5 -512q0 -136 -33 -253t-92.5 -203t-140.5 -147t-178 -91.5t-203 -30.5q-302 0 -457.5 185.5t-155.5 508.5zM260 705q0 -269 117.5 -427.5t343.5 -158.5q92 0 174.5 37t147.5 106 t103 178t38 242q0 278 -121.5 431t-341.5 153q-92 0 -175 -37.5t-147 -106.5t-101.5 -177t-37.5 -240zM627 1583l266 227l84 -106l-283 -207z" />
<glyph unicode="&#xd4;" horiz-adv-x="1443" d="M92 676q0 136 33 253.5t93 203t141 146.5t178 91.5t204 30.5q284 0 447.5 -182t163.5 -512q0 -136 -33 -253t-92.5 -203t-140.5 -147t-178 -91.5t-203 -30.5q-302 0 -457.5 185.5t-155.5 508.5zM260 705q0 -269 117.5 -427.5t343.5 -158.5q92 0 174.5 37t147.5 106 t103 178t38 242q0 278 -121.5 431t-341.5 153q-92 0 -175 -37.5t-147 -106.5t-101.5 -177t-37.5 -240zM461 1593l268 195l281 -189l-72 -92l-211 142l-201 -142z" />
<glyph unicode="&#xd5;" horiz-adv-x="1443" d="M92 676q0 136 33 253.5t93 203t141 146.5t178 91.5t204 30.5q284 0 447.5 -182t163.5 -512q0 -136 -33 -253t-92.5 -203t-140.5 -147t-178 -91.5t-203 -30.5q-302 0 -457.5 185.5t-155.5 508.5zM260 705q0 -269 117.5 -427.5t343.5 -158.5q92 0 174.5 37t147.5 106 t103 178t38 242q0 278 -121.5 431t-341.5 153q-92 0 -175 -37.5t-147 -106.5t-101.5 -177t-37.5 -240zM391 1677q82 82 191 82q57 0 107.5 -24t96 -48t88.5 -24q74 0 142 68l39 -105q-34 -34 -85 -58t-104 -24q-48 0 -91 15t-70 33t-64 33t-74 15q-73 0 -137 -67z" />
<glyph unicode="&#xd6;" horiz-adv-x="1443" d="M92 676q0 136 33 253.5t93 203t141 146.5t178 91.5t204 30.5q284 0 447.5 -182t163.5 -512q0 -136 -33 -253t-92.5 -203t-140.5 -147t-178 -91.5t-203 -30.5q-302 0 -457.5 185.5t-155.5 508.5zM260 705q0 -269 117.5 -427.5t343.5 -158.5q92 0 174.5 37t147.5 106 t103 178t38 242q0 278 -121.5 431t-341.5 153q-92 0 -175 -37.5t-147 -106.5t-101.5 -177t-37.5 -240zM428 1622q0 40 28.5 68t69.5 28t70 -28t29 -68q0 -41 -29 -69.5t-70 -28.5t-69.5 28.5t-28.5 69.5zM813 1622q0 40 28.5 68t69.5 28q40 0 69.5 -28.5t29.5 -67.5 q0 -41 -29.5 -69.5t-69.5 -28.5q-41 0 -69.5 28.5t-28.5 69.5z" />
<glyph unicode="&#xd8;" horiz-adv-x="1443" d="M90 680q0 169 50.5 307t138 227.5t204 138t250.5 48.5q79 0 162 -17l74 199l118 -41l-71 -196q159 -70 245.5 -235.5t86.5 -412.5q0 -169 -50 -305.5t-138 -226t-207 -137t-259 -47.5q-99 0 -172 20l-80 -213l-118 41l77 213q-158 77 -234.5 243t-76.5 394zM252 698 q0 -374 203 -508l393 1057q-70 18 -150 15q-91 -2 -171 -40.5t-141.5 -108t-97.5 -177t-36 -238.5zM569 137q61 -20 150 -20q205 3 335 151t130 410q0 187 -56.5 322t-166.5 198z" />
<glyph unicode="&#xd9;" horiz-adv-x="1427" d="M186 459v923h158v-909q0 -64 9 -114.5t33.5 -98.5t64.5 -79.5t105.5 -50.5t152.5 -19q195 0 286.5 92.5t91.5 308.5v870h154v-858q0 -266 -138.5 -404t-406.5 -138q-89 0 -162.5 14t-126 38.5t-92 60.5t-63.5 76t-39.5 89.5t-21 97t-5.5 101.5zM485 1704l86 106l267 -227 l-70 -86z" />
<glyph unicode="&#xda;" horiz-adv-x="1427" d="M186 459v923h158v-909q0 -64 9 -114.5t33.5 -98.5t64.5 -79.5t105.5 -50.5t152.5 -19q195 0 286.5 92.5t91.5 308.5v870h154v-858q0 -266 -138.5 -404t-406.5 -138q-89 0 -162.5 14t-126 38.5t-92 60.5t-63.5 76t-39.5 89.5t-21 97t-5.5 101.5zM588 1583l266 227l84 -106 l-283 -207z" />
<glyph unicode="&#xdb;" horiz-adv-x="1427" d="M186 459v923h158v-909q0 -64 9 -114.5t33.5 -98.5t64.5 -79.5t105.5 -50.5t152.5 -19q195 0 286.5 92.5t91.5 308.5v870h154v-858q0 -266 -138.5 -404t-406.5 -138q-89 0 -162.5 14t-126 38.5t-92 60.5t-63.5 76t-39.5 89.5t-21 97t-5.5 101.5zM438 1593l269 195 l280 -189l-72 -92l-210 142l-201 -142z" />
<glyph unicode="&#xdc;" horiz-adv-x="1427" d="M186 459v923h158v-909q0 -64 9 -114.5t33.5 -98.5t64.5 -79.5t105.5 -50.5t152.5 -19q195 0 286.5 92.5t91.5 308.5v870h154v-858q0 -266 -138.5 -404t-406.5 -138q-89 0 -162.5 14t-126 38.5t-92 60.5t-63.5 76t-39.5 89.5t-21 97t-5.5 101.5zM403 1622q0 40 29 68 t70 28t69.5 -28t28.5 -68q0 -41 -28.5 -69.5t-69.5 -28.5t-70 28.5t-29 69.5zM788 1622q0 40 29 68t70 28q40 0 69 -28t29 -68q0 -41 -29 -69.5t-69 -28.5q-41 0 -70 28.5t-29 69.5z" />
<glyph unicode="&#xdf;" horiz-adv-x="1202" d="M186 0v1028q0 128 35 223.5t98 151t142.5 82t175.5 26.5q168 0 262 -74t94 -192q0 -57 -16.5 -102.5t-43 -74.5t-58.5 -52.5t-64.5 -43.5t-59 -42t-43 -53t-16.5 -70q0 -45 23 -81.5t60 -62.5t82 -50t90 -52t82 -61.5t60 -85t23 -115.5q0 -139 -109 -228t-294 -89 q-112 0 -197 20l6 139q91 -32 195 -32q120 0 180.5 48.5t60.5 121.5q0 48 -23 85.5t-60 63t-81 49.5t-88.5 51.5t-81.5 61t-60 85.5t-23 118q0 50 16.5 91t43 69t58 52.5t63.5 47t58.5 46.5t43 57t16.5 73q0 79 -56.5 120.5t-152.5 41.5q-287 0 -287 -353v-1038h-154z" />
<glyph unicode="&#xe0;" horiz-adv-x="1093" d="M102 229q0 163 163.5 262t455.5 99v84q0 121 -52.5 180t-179.5 59q-76 0 -160.5 -23t-150.5 -65l-14 136q167 75 352 75q103 0 174.5 -24t111.5 -70t57.5 -103.5t17.5 -133.5v-582q94 -15 178 -21v-88q-159 -21 -326 -14q0 156 10 215h-4q-38 -101 -133 -167t-221 -66 q-125 0 -202 64.5t-77 182.5zM256 258q0 -69 45.5 -110.5t120.5 -41.5q87 0 156.5 52.5t106 133t36.5 169.5v16q-110 0 -195 -13.5t-135 -35t-81.5 -51.5t-42.5 -58.5t-11 -60.5zM297 1393l86 106l266 -227l-69 -86z" />
<glyph unicode="&#xe1;" horiz-adv-x="1093" d="M102 229q0 163 163.5 262t455.5 99v84q0 121 -52.5 180t-179.5 59q-76 0 -160.5 -23t-150.5 -65l-14 136q167 75 352 75q103 0 174.5 -24t111.5 -70t57.5 -103.5t17.5 -133.5v-582q94 -15 178 -21v-88q-159 -21 -326 -14q0 156 10 215h-4q-38 -101 -133 -167t-221 -66 q-125 0 -202 64.5t-77 182.5zM256 258q0 -69 45.5 -110.5t120.5 -41.5q87 0 156.5 52.5t106 133t36.5 169.5v16q-110 0 -195 -13.5t-135 -35t-81.5 -51.5t-42.5 -58.5t-11 -60.5zM412 1272l266 227l84 -106l-283 -207z" />
<glyph unicode="&#xe2;" horiz-adv-x="1093" d="M102 229q0 163 163.5 262t455.5 99v84q0 121 -52.5 180t-179.5 59q-76 0 -160.5 -23t-150.5 -65l-14 136q167 75 352 75q103 0 174.5 -24t111.5 -70t57.5 -103.5t17.5 -133.5v-582q94 -15 178 -21v-88q-159 -21 -326 -14q0 156 10 215h-4q-38 -101 -133 -167t-221 -66 q-125 0 -202 64.5t-77 182.5zM252 1282l268 195l281 -189l-72 -92l-211 141l-201 -141zM256 258q0 -69 45.5 -110.5t120.5 -41.5q87 0 156.5 52.5t106 133t36.5 169.5v16q-110 0 -195 -13.5t-135 -35t-81.5 -51.5t-42.5 -58.5t-11 -60.5z" />
<glyph unicode="&#xe3;" horiz-adv-x="1093" d="M102 229q0 163 163.5 262t455.5 99v84q0 121 -52.5 180t-179.5 59q-76 0 -160.5 -23t-150.5 -65l-14 136q167 75 352 75q103 0 174.5 -24t111.5 -70t57.5 -103.5t17.5 -133.5v-582q94 -15 178 -21v-88q-159 -21 -326 -14q0 156 10 215h-4q-38 -101 -133 -167t-221 -66 q-125 0 -202 64.5t-77 182.5zM178 1364q82 82 191 82q45 0 87.5 -15t70 -33t64 -33t71.5 -15q74 0 141 67l39 -104q-34 -34 -85 -58t-104 -24q-48 0 -91 15t-70 33t-64 33t-74 15q-73 0 -137 -67zM256 258q0 -69 45.5 -110.5t120.5 -41.5q87 0 156.5 52.5t106 133 t36.5 169.5v16q-110 0 -195 -13.5t-135 -35t-81.5 -51.5t-42.5 -58.5t-11 -60.5z" />
<glyph unicode="&#xe4;" horiz-adv-x="1093" d="M102 229q0 163 163.5 262t455.5 99v84q0 121 -52.5 180t-179.5 59q-76 0 -160.5 -23t-150.5 -65l-14 136q167 75 352 75q103 0 174.5 -24t111.5 -70t57.5 -103.5t17.5 -133.5v-582q94 -15 178 -21v-88q-159 -21 -326 -14q0 156 10 215h-4q-38 -101 -133 -167t-221 -66 q-125 0 -202 64.5t-77 182.5zM227 1346q0 40 29 68t70 28t69.5 -28t28.5 -68q0 -41 -28.5 -70t-69.5 -29t-70 29t-29 70zM256 258q0 -69 45.5 -110.5t120.5 -41.5q87 0 156.5 52.5t106 133t36.5 169.5v16q-110 0 -195 -13.5t-135 -35t-81.5 -51.5t-42.5 -58.5t-11 -60.5z M612 1346q0 40 29 68t70 28q40 0 69 -28t29 -68q0 -41 -29 -70t-69 -29q-41 0 -70 29t-29 70z" />
<glyph unicode="&#xe5;" horiz-adv-x="1093" d="M102 229q0 163 163.5 262t455.5 99v84q0 121 -52.5 180t-179.5 59q-76 0 -160.5 -23t-150.5 -65l-14 136q167 75 352 75q103 0 174.5 -24t111.5 -70t57.5 -103.5t17.5 -133.5v-582q94 -15 178 -21v-88q-159 -21 -326 -14q0 156 10 215h-4q-38 -101 -133 -167t-221 -66 q-125 0 -202 64.5t-77 182.5zM256 258q0 -69 45.5 -110.5t120.5 -41.5q87 0 156.5 52.5t106 133t36.5 169.5v16q-110 0 -195 -13.5t-135 -35t-81.5 -51.5t-42.5 -58.5t-11 -60.5zM305 1354q0 91 64.5 153t156.5 62q94 0 158 -61.5t64 -153.5q0 -88 -65.5 -151.5 t-156.5 -63.5q-93 0 -157 61t-64 154zM412 1354q0 -50 32.5 -84.5t81.5 -34.5t82 34.5t33 84.5t-33 84.5t-82 34.5t-81.5 -34.5t-32.5 -84.5z" />
<glyph unicode="&#xe6;" horiz-adv-x="1656" d="M102 229q0 163 163.5 262t455.5 99v82q0 118 -54 179.5t-178 61.5q-76 0 -160.5 -23t-150.5 -65l-14 136q167 75 352 75q238 0 311 -170h2q49 75 135 122.5t195 47.5q103 0 181.5 -33.5t125 -92.5t70 -133t23.5 -161q0 -8 -1 -19.5t-2 -28t-2 -27.5h-682 q-6 -225 78 -328.5t258 -103.5q169 0 299 65l15 -131q-147 -61 -336 -61q-168 0 -272 67t-142 176h-2q-48 -101 -149.5 -172t-239.5 -71q-127 0 -203 64t-76 183zM256 258q0 -69 45.5 -110.5t120.5 -41.5q87 0 156.5 52.5t106 133t36.5 169.5v16q-110 0 -195 -13.5t-135 -35 t-81.5 -51.5t-42.5 -58.5t-11 -60.5zM881 655h516q3 120 -63.5 192.5t-182.5 72.5q-105 0 -177.5 -72t-92.5 -193z" />
<glyph unicode="&#xe7;" horiz-adv-x="901" d="M90 473q0 257 128.5 408t371.5 151q126 0 239 -35l-16 -135q-113 45 -233 45q-161 0 -244.5 -109t-83.5 -298q0 -84 14.5 -149t48 -119t96.5 -83.5t152 -29.5q145 0 256 57l15 -133q-139 -55 -304 -55q-72 0 -133 13t-119.5 47t-98.5 87.5t-64.5 139.5t-24.5 198z M346 -424q185 137 88 320h152q105 -222 -172 -385z" />
<glyph unicode="&#xe8;" d="M90 504q0 153 52 273t154.5 189.5t240.5 69.5q102 0 180 -33.5t124.5 -92.5t69.5 -133t23 -161q0 -44 -4 -75h-680q-7 -224 78.5 -328t259.5 -104q168 0 295 65l14 -131q-147 -61 -336 -61q-471 0 -471 522zM258 655h516q3 120 -63.5 192.5t-182.5 72.5 q-106 0 -178.5 -72t-91.5 -193zM299 1393l86 106l266 -227l-69 -86z" />
<glyph unicode="&#xe9;" d="M90 504q0 153 52 273t154.5 189.5t240.5 69.5q102 0 180 -33.5t124.5 -92.5t69.5 -133t23 -161q0 -44 -4 -75h-680q-7 -224 78.5 -328t259.5 -104q168 0 295 65l14 -131q-147 -61 -336 -61q-471 0 -471 522zM258 655h516q3 120 -63.5 192.5t-182.5 72.5 q-106 0 -178.5 -72t-91.5 -193zM420 1272l266 227l84 -106l-283 -207z" />
<glyph unicode="&#xea;" d="M90 504q0 153 52 273t154.5 189.5t240.5 69.5q102 0 180 -33.5t124.5 -92.5t69.5 -133t23 -161q0 -44 -4 -75h-680q-7 -224 78.5 -328t259.5 -104q168 0 295 65l14 -131q-147 -61 -336 -61q-471 0 -471 522zM258 655h516q3 120 -63.5 192.5t-182.5 72.5 q-106 0 -178.5 -72t-91.5 -193zM266 1282l269 195l280 -189l-72 -92l-211 141l-200 -141z" />
<glyph unicode="&#xeb;" d="M90 504q0 153 52 273t154.5 189.5t240.5 69.5q102 0 180 -33.5t124.5 -92.5t69.5 -133t23 -161q0 -44 -4 -75h-680q-7 -224 78.5 -328t259.5 -104q168 0 295 65l14 -131q-147 -61 -336 -61q-471 0 -471 522zM246 1346q0 40 28.5 68t69.5 28t69.5 -28t28.5 -68 q0 -41 -28.5 -70t-69.5 -29t-69.5 29t-28.5 70zM258 655h516q3 120 -63.5 192.5t-182.5 72.5q-106 0 -178.5 -72t-91.5 -193zM631 1346q0 40 28.5 68t69.5 28q40 0 69 -28t29 -68q0 -41 -29 -70t-69 -29q-41 0 -69.5 29t-28.5 70z" />
<glyph unicode="&#xec;" horiz-adv-x="573" d="M57 915v89q155 21 330 14v-1018h-151v895q-82 13 -179 20zM68 1393l86 106l266 -227l-70 -86z" />
<glyph unicode="&#xed;" horiz-adv-x="573" d="M57 915v89q155 21 330 14v-1018h-151v895q-82 13 -179 20zM129 1272l264 227l86 -106l-282 -207z" />
<glyph unicode="&#xee;" horiz-adv-x="573" d="M20 1282l269 195l278 -189l-69 -92l-211 141l-203 -141zM57 915v89q155 21 330 14v-1018h-151v895q-82 13 -179 20z" />
<glyph unicode="&#xef;" horiz-adv-x="573" d="M-2 1346q0 40 28.5 68t69.5 28q40 0 68.5 -28t28.5 -68q0 -41 -28.5 -70t-68.5 -29q-41 0 -69.5 29t-28.5 70zM57 915v89q155 21 330 14v-1018h-151v895q-82 13 -179 20zM383 1346q0 40 28 68t68 28q41 0 70 -28t29 -68q0 -41 -29 -70t-70 -29q-40 0 -68 29t-28 70z" />
<glyph unicode="&#xf1;" horiz-adv-x="1230" d="M57 915v89q155 21 330 14q0 -134 -18 -225l4 -2q46 113 140.5 180t223.5 67q85 0 146 -25t95.5 -71.5t50 -103t15.5 -127.5v-711h-153v659q0 127 -43 189.5t-150 62.5q-136 0 -223.5 -120t-87.5 -302v-489h-151v895q-82 13 -179 20zM301 1364q82 82 191 82 q57 0 107.5 -24t96 -48t88.5 -24q75 0 142 67l39 -104q-34 -34 -85 -58t-104 -24q-48 0 -91 15t-70 33t-64 33t-74 15q-73 0 -137 -67z" />
<glyph unicode="&#xf2;" horiz-adv-x="1110" d="M86 504q0 109 33.5 206t94.5 169.5t153 114.5t204 42q96 0 175.5 -28t142.5 -86.5t98 -159t35 -236.5q0 -152 -58 -275t-170 -196t-259 -73q-210 0 -329.5 131t-119.5 391zM246 516q0 -195 80.5 -299t230.5 -104q130 0 217.5 102t87.5 301q0 187 -77.5 290t-227.5 103 q-62 0 -116.5 -23.5t-98.5 -70t-70 -124t-26 -175.5zM338 1393l86 106l266 -227l-69 -86z" />
<glyph unicode="&#xf3;" horiz-adv-x="1110" d="M86 504q0 109 33.5 206t94.5 169.5t153 114.5t204 42q96 0 175.5 -28t142.5 -86.5t98 -159t35 -236.5q0 -152 -58 -275t-170 -196t-259 -73q-210 0 -329.5 131t-119.5 391zM246 516q0 -195 80.5 -299t230.5 -104q130 0 217.5 102t87.5 301q0 187 -77.5 290t-227.5 103 q-62 0 -116.5 -23.5t-98.5 -70t-70 -124t-26 -175.5zM451 1272l266 227l84 -106l-283 -207z" />
<glyph unicode="&#xf4;" horiz-adv-x="1110" d="M86 504q0 109 33.5 206t94.5 169.5t153 114.5t204 42q96 0 175.5 -28t142.5 -86.5t98 -159t35 -236.5q0 -152 -58 -275t-170 -196t-259 -73q-210 0 -329.5 131t-119.5 391zM246 516q0 -195 80.5 -299t230.5 -104q130 0 217.5 102t87.5 301q0 187 -77.5 290t-227.5 103 q-62 0 -116.5 -23.5t-98.5 -70t-70 -124t-26 -175.5zM283 1282l268 195l280 -189l-71 -92l-211 141l-201 -141z" />
<glyph unicode="&#xf5;" horiz-adv-x="1110" d="M86 504q0 109 33.5 206t94.5 169.5t153 114.5t204 42q96 0 175.5 -28t142.5 -86.5t98 -159t35 -236.5q0 -152 -58 -275t-170 -196t-259 -73q-210 0 -329.5 131t-119.5 391zM225 1364q82 82 191 82q45 0 87.5 -15t70 -33t64 -33t71.5 -15q74 0 141 67l39 -104 q-34 -34 -85 -58t-104 -24q-48 0 -91 15t-70 33t-64 33t-74 15q-73 0 -137 -67zM246 516q0 -195 80.5 -299t230.5 -104q130 0 217.5 102t87.5 301q0 187 -77.5 290t-227.5 103q-62 0 -116.5 -23.5t-98.5 -70t-70 -124t-26 -175.5z" />
<glyph unicode="&#xf6;" horiz-adv-x="1110" d="M86 504q0 109 33.5 206t94.5 169.5t153 114.5t204 42q96 0 175.5 -28t142.5 -86.5t98 -159t35 -236.5q0 -152 -58 -275t-170 -196t-259 -73q-210 0 -329.5 131t-119.5 391zM246 516q0 -195 80.5 -299t230.5 -104q130 0 217.5 102t87.5 301q0 187 -77.5 290t-227.5 103 q-62 0 -116.5 -23.5t-98.5 -70t-70 -124t-26 -175.5zM262 1346q0 40 28.5 68t69.5 28t70 -28t29 -68q0 -41 -29 -70t-70 -29t-69.5 29t-28.5 70zM647 1346q0 40 28.5 68t69.5 28q40 0 69.5 -28.5t29.5 -67.5q0 -41 -29.5 -70t-69.5 -29q-41 0 -69.5 29t-28.5 70z" />
<glyph unicode="&#xf7;" horiz-adv-x="1187" d="M94 463v131h1000v-131h-1000zM485 115q0 45 31.5 76.5t77.5 31.5q45 0 76.5 -31.5t31.5 -76.5q0 -46 -31.5 -78.5t-76.5 -32.5q-46 0 -77.5 32.5t-31.5 78.5zM485 940q0 45 32 77t77 32t76.5 -32t31.5 -77q0 -46 -31 -77.5t-77 -31.5t-77.5 31.5t-31.5 77.5z" />
<glyph unicode="&#xf8;" horiz-adv-x="1107" d="M78 504q0 149 56 268.5t167.5 191.5t259.5 72q37 0 103 -8l73 191l107 -35l-74 -191q111 -51 175.5 -166t64.5 -303q0 -152 -57.5 -274.5t-168.5 -195t-256 -72.5q-78 0 -139 18l-80 -211l-108 35l86 217q-105 62 -157 183.5t-52 279.5zM227 514q0 -109 29.5 -195 t85.5 -135l274 721q-54 8 -84 8q-57 -2 -108.5 -24t-97 -67t-72.5 -124.5t-27 -183.5zM438 127q53 -21 121 -21q60 2 113 27t95.5 73t67.5 128.5t25 183.5q0 256 -141 344z" />
<glyph unicode="&#xf9;" horiz-adv-x="1255" d="M49 915v89q162 21 332 14v-660q0 -128 42.5 -190t149.5 -62q136 0 223 119.5t87 302.5v490h153v-895q94 -15 178 -21v-88q-155 -21 -329 -14q0 130 18 225l-4 2q-46 -113 -140.5 -180t-223.5 -67q-308 0 -308 327v588q-83 14 -178 20zM365 1393l86 106l266 -227l-70 -86z " />
<glyph unicode="&#xfa;" horiz-adv-x="1255" d="M49 915v89q162 21 332 14v-660q0 -128 42.5 -190t149.5 -62q136 0 223 119.5t87 302.5v490h153v-895q94 -15 178 -21v-88q-155 -21 -329 -14q0 130 18 225l-4 2q-46 -113 -140.5 -180t-223.5 -67q-308 0 -308 327v588q-83 14 -178 20zM522 1272l266 227l84 -106 l-282 -207z" />
<glyph unicode="&#xfb;" horiz-adv-x="1255" d="M49 915v89q162 21 332 14v-660q0 -128 42.5 -190t149.5 -62q136 0 223 119.5t87 302.5v490h153v-895q94 -15 178 -21v-88q-155 -21 -329 -14q0 130 18 225l-4 2q-46 -113 -140.5 -180t-223.5 -67q-308 0 -308 327v588q-83 14 -178 20zM354 1282l269 195l280 -189l-72 -92 l-210 141l-201 -141z" />
<glyph unicode="&#xfc;" horiz-adv-x="1255" d="M49 915v89q162 21 332 14v-660q0 -128 42.5 -190t149.5 -62q136 0 223 119.5t87 302.5v490h153v-895q94 -15 178 -21v-88q-155 -21 -329 -14q0 130 18 225l-4 2q-46 -113 -140.5 -180t-223.5 -67q-308 0 -308 327v588q-83 14 -178 20zM332 1346q0 40 28.5 68t69.5 28 t69.5 -28t28.5 -68q0 -41 -28.5 -70t-69.5 -29t-69.5 29t-28.5 70zM717 1346q0 40 28.5 68t69.5 28q40 0 69 -28t29 -68q0 -41 -29 -70t-69 -29q-41 0 -69.5 29t-28.5 70z" />
<glyph unicode="&#xff;" horiz-adv-x="964" d="M-43 -514l16 141q59 -20 127 -20q94 0 150 56.5t115 215.5l47 121l-389 1018h176l213 -584q26 -73 77 -241h3q22 81 102 309l182 516h168l-426 -1124q-47 -123 -86.5 -198.5t-90 -127t-110.5 -72t-145 -20.5q-61 0 -129 10zM190 1346q0 40 29 68t70 28t69.5 -28t28.5 -68 q0 -41 -28.5 -70t-69.5 -29t-70 29t-29 70zM575 1346q0 40 29 68t70 28q40 0 69 -28t29 -68q0 -41 -29 -70t-69 -29q-41 0 -70 29t-29 70z" />
<glyph unicode="&#x152;" horiz-adv-x="1714" d="M92 680q0 164 50.5 300t138 225.5t204 138.5t248.5 49q51 0 138 -5.5t124 -5.5h568v-127h-539v-479h512v-127h-512v-518h539v-131h-564q-58 0 -156.5 -5t-146.5 -5q-125 0 -225.5 33.5t-170.5 94t-117 147t-69 190t-22 225.5zM258 698q0 -97 15 -179.5t49.5 -156 t87.5 -125.5t134 -82t183 -30q81 0 143 12v1112q-80 13 -147 13q-95 0 -179 -38.5t-148 -109.5t-101 -178.5t-37 -237.5z" />
<glyph unicode="&#x153;" horiz-adv-x="1796" d="M86 506q0 148 56 267t167.5 191t259.5 72q122 0 221 -53t150 -156q55 97 146 153t212 56q102 0 180 -33.5t125 -92.5t70 -133t23 -161q0 -44 -4 -75h-682q-6 -224 79 -328t259 -104q79 0 160.5 18t140.5 47l10 -131q-147 -61 -336 -61q-304 0 -403 225 q-126 -225 -385 -225q-116 0 -203.5 40t-140.5 112.5t-79 165.5t-26 206zM240 514q0 -118 31.5 -206.5t103.5 -143.5t180 -55q131 0 219 103t88 304q0 193 -78 294t-233 101q-58 0 -111 -21.5t-99 -65.5t-73.5 -124t-27.5 -186zM1018 655h518q3 120 -63.5 192.5t-182.5 72.5 q-106 0 -179.5 -72.5t-92.5 -192.5z" />
<glyph unicode="&#x178;" horiz-adv-x="1079" d="M25 1382h172l235 -493q48 -101 107 -244h2q28 72 121 266l227 471h166l-443 -880v-502h-155v500zM246 1622q0 40 28.5 68t69.5 28t69.5 -28t28.5 -68q0 -41 -28.5 -69.5t-69.5 -28.5t-69.5 28.5t-28.5 69.5zM631 1622q0 40 28.5 68t69.5 28q40 0 69 -28t29 -68 q0 -41 -29 -69.5t-69 -28.5q-41 0 -69.5 28.5t-28.5 69.5z" />
<glyph unicode="&#x2c6;" horiz-adv-x="892" d="M172 1282l268 195l281 -189l-72 -92l-211 141l-200 -141z" />
<glyph unicode="&#x2dc;" horiz-adv-x="1038" d="M207 1364q82 82 190 82q45 0 87.5 -15t70 -33t64 -33t71.5 -15q74 0 141 67l39 -104q-34 -34 -84.5 -58t-103.5 -24q-48 0 -91 15t-70 33t-64 33t-74 15q-73 0 -137 -67z" />
<glyph unicode="&#x2000;" horiz-adv-x="905" />
<glyph unicode="&#x2001;" horiz-adv-x="1810" />
<glyph unicode="&#x2002;" horiz-adv-x="905" />
<glyph unicode="&#x2003;" horiz-adv-x="1810" />
<glyph unicode="&#x2004;" horiz-adv-x="603" />
<glyph unicode="&#x2005;" horiz-adv-x="452" />
<glyph unicode="&#x2006;" horiz-adv-x="301" />
<glyph unicode="&#x2007;" horiz-adv-x="301" />
<glyph unicode="&#x2008;" horiz-adv-x="226" />
<glyph unicode="&#x2009;" horiz-adv-x="362" />
<glyph unicode="&#x200a;" horiz-adv-x="100" />
<glyph unicode="&#x2010;" horiz-adv-x="671" d="M98 449v122h475v-122h-475z" />
<glyph unicode="&#x2011;" horiz-adv-x="671" d="M98 449v122h475v-122h-475z" />
<glyph unicode="&#x2012;" horiz-adv-x="671" d="M98 449v122h475v-122h-475z" />
<glyph unicode="&#x2013;" horiz-adv-x="1024" d="M0 524v135h1024v-135h-1024z" />
<glyph unicode="&#x2014;" horiz-adv-x="2048" d="M0 524v135h2048v-135h-2048z" />
<glyph unicode="&#x2018;" horiz-adv-x="479" d="M132 1088q-39 85 19 212q52 115 175 230l67 -60q-60 -65 -88 -123t-26 -96.5t24 -66.5q23 -35 21 -70t-29.5 -61.5t-67.5 -26.5q-65 0 -95 62z" />
<glyph unicode="&#x2019;" horiz-adv-x="479" d="M84 1073q60 66 87.5 124t25.5 96t-23 67q-23 35 -21 70t29.5 61.5t67.5 26.5q65 0 95 -62q40 -83 -17 -210q-53 -116 -176 -232z" />
<glyph unicode="&#x201a;" horiz-adv-x="479" d="M84 -242q60 66 87.5 124t25.5 96t-23 67q-38 49 -12 103.5t88 54.5q65 0 95 -62q40 -83 -17 -210q-52 -116 -176 -232z" />
<glyph unicode="&#x201c;" horiz-adv-x="845" d="M132 1088q-39 85 19 212q52 115 175 230l67 -60q-60 -65 -88 -123t-26 -96.5t24 -66.5q23 -35 21 -70t-29.5 -61.5t-67.5 -26.5q-65 0 -95 62zM498 1088q-41 84 16 211q53 116 176 231l68 -60q-60 -65 -87.5 -123t-25 -96t24.5 -67q37 -50 11 -104t-87 -54q-66 0 -96 62z " />
<glyph unicode="&#x201d;" horiz-adv-x="845" d="M84 1073q60 66 87.5 124t25.5 96t-23 67q-23 35 -21 70t29.5 61.5t67.5 26.5q65 0 95 -62q40 -83 -17 -210q-53 -116 -176 -232zM449 1073q61 66 89 124t25.5 96t-24.5 67q-37 50 -11.5 104t86.5 54q66 0 96 -62q41 -84 -16 -211q-53 -116 -176 -231z" />
<glyph unicode="&#x201e;" horiz-adv-x="845" d="M84 -242q60 66 87.5 124t25.5 96t-23 67q-38 49 -12 103.5t88 54.5q65 0 95 -62q40 -83 -17 -210q-52 -116 -176 -232zM449 -242q61 66 89 124t25.5 96t-24.5 67q-37 49 -11.5 103.5t86.5 54.5q66 0 96 -62q41 -84 -16 -211q-52 -115 -176 -231z" />
<glyph unicode="&#x2022;" horiz-adv-x="882" d="M203 596q0 93 66 159t159 66q92 0 158.5 -66.5t66.5 -158.5q0 -93 -66 -159t-159 -66q-94 0 -159.5 65.5t-65.5 159.5z" />
<glyph unicode="&#x2026;" horiz-adv-x="1327" d="M111 94q0 46 32 78.5t78 32.5q47 0 80 -32.5t33 -78.5t-33 -78t-80 -32q-46 0 -78 32t-32 78zM541 94q0 46 32 78.5t78 32.5q47 0 80 -32.5t33 -78.5t-33 -78t-80 -32q-46 0 -78 32t-32 78zM971 94q0 46 32.5 78.5t79.5 32.5q46 0 78.5 -32.5t32.5 -78.5t-32.5 -78 t-78.5 -32q-47 0 -79.5 32t-32.5 78z" />
<glyph unicode="&#x202f;" horiz-adv-x="362" />
<glyph unicode="&#x2039;" horiz-adv-x="641" d="M121 502l250 360l112 -69l-211 -289l207 -283l-114 -74z" />
<glyph unicode="&#x203a;" horiz-adv-x="641" d="M160 219l209 287l-207 285l117 71l243 -354l-250 -361z" />
<glyph unicode="&#x205f;" horiz-adv-x="452" />
<glyph unicode="&#x2122;" horiz-adv-x="1437" d="M102 1286v96h435v-96h-154v-479h-123v479h-158zM582 807l88 575h157l101 -340l22 -98l19 88l108 350h156l88 -575h-123l-47 323l-16 115l-25 -98l-104 -340h-127l-101 344l-24 94l-6 -76l-54 -362h-112z" />
<glyph unicode="&#xe000;" horiz-adv-x="1013" d="M0 0v1014h1014v-1014h-1014z" />
<glyph unicode="&#xfb01;" horiz-adv-x="1204" d="M14 897v121h222v49q0 214 114.5 327t347.5 113q135 0 277 -39l-31 -129q-125 41 -248 41q-307 0 -307 -293v-69h629v-1018h-154v897h-475v-897h-153v897h-222z" />
<glyph unicode="&#xfb02;" horiz-adv-x="1204" d="M14 897v121h222v125q0 173 113.5 268.5t340.5 95.5q142 0 328 -28v-1479h-154v1366q-84 16 -188 16q-148 0 -217.5 -62t-69.5 -196v-106h297v-121h-297v-897h-153v897h-222z" />
</font>
</defs>
</svg>
