<?xml version="1.0" standalone="no"?>
<!DOCTYPE svg PUBLIC "-//W3C//DTD SVG 1.1//EN" "http://www.w3.org/Graphics/SVG/1.1/DTD/svg11.dtd" >
<svg xmlns="http://www.w3.org/2000/svg">
<metadata></metadata>
<defs>
<font id="themixboldroman" horiz-adv-x="1439" >
<font-face units-per-em="2048" ascent="1516" descent="-532" />
<missing-glyph horiz-adv-x="446" />
<glyph horiz-adv-x="2048" />
<glyph horiz-adv-x="2048" />
<glyph unicode="&#xd;" horiz-adv-x="446" />
<glyph unicode=" "  horiz-adv-x="446" />
<glyph unicode="&#x09;" horiz-adv-x="446" />
<glyph unicode="&#xa0;" horiz-adv-x="446" />
<glyph unicode="!" horiz-adv-x="622" d="M150 133q0 -66 46 -111t113 -45q68 0 114 45.5t46 110.5q0 66 -46 111t-114 45t-113.5 -45t-45.5 -111zM158 1466l43 -1081h225l39 1081h-307z" />
<glyph unicode="&#x22;" horiz-adv-x="829" d="M90 1534l33 -520h196l33 520h-262zM477 1534l33 -520h195l34 520h-262z" />
<glyph unicode="#" horiz-adv-x="1421" d="M55 360h269l-39 -360h225l39 360h250l-37 -360h227l37 360h281v193h-260l32 305h287v193h-266l33 331h-228l-33 -331h-251l34 331h-225l-35 -331h-280v-193h260l-33 -305h-287v-193zM569 553l33 305h250l-33 -305h-250z" />
<glyph unicode="$" horiz-adv-x="1011" d="M96 905q0 -106 40 -172.5t101.5 -108.5t131 -69t131 -52.5t101.5 -59t40 -91.5q0 -82 -60.5 -117.5t-158.5 -35.5q-59 0 -130 10t-130 33l-19 -238q59 -10 119 -17t129 -10v-235h189v250q80 18 142 54t105 87t67 113.5t24 132.5q0 104 -41 170.5t-102.5 111t-133.5 72 t-133.5 54t-102 59.5t-40.5 86q0 55 46 96t158 41q102 0 226 -35l18 223q-98 20 -209 25v193h-186v-207q-145 -29 -233.5 -127.5t-88.5 -235.5z" />
<glyph unicode="%" horiz-adv-x="1665" d="M74 1063q0 -172 90 -257t237 -85q70 0 134.5 24.5t113.5 72.5t78 117t29 155q0 90 -25.5 153.5t-71 104.5t-106.5 59t-131 18q-68 0 -131.5 -24.5t-111.5 -70.5t-76.5 -113.5t-28.5 -153.5zM233 82l189 -135l993 1353l-188 136zM295 1073q0 82 35 127t86 45q59 0 90 -37 t31 -133q0 -86 -36 -130t-89 -44q-57 0 -87 39t-30 133zM899 299q0 -172 90 -257t238 -85q70 0 133 24.5t112.5 72.5t78 117t28.5 155q0 90 -25.5 153.5t-70.5 104.5t-106.5 59.5t-131.5 18.5q-68 0 -130 -25t-110.5 -71t-77 -113.5t-28.5 -153.5zM1120 309q0 82 35 127 t86 45q59 0 89 -37t30 -133q0 -86 -35 -130t-88 -44q-57 0 -87 39t-30 133z" />
<glyph unicode="&#x26;" horiz-adv-x="1642" d="M96 383q0 -82 29 -155.5t87 -130t146 -89.5t209 -33q166 0 302.5 49.5t232.5 127.5q59 -47 130 -98.5t142 -102.5l172 201q-123 82 -252 180q94 127 139.5 281.5t32.5 328.5q-106 4 -210.5 -1t-208.5 -15v-154q35 -4 77.5 -9t77.5 -11q-4 -84 -31.5 -158t-64.5 -127v2 q-111 82 -217.5 176t-188.5 172q115 92 177.5 186.5t62.5 210.5q0 135 -93 219.5t-272 84.5q-98 0 -173.5 -28t-128 -74t-79 -108.5t-26.5 -129.5q0 -41 8 -81t29.5 -84t56.5 -93.5t88 -108.5q-53 -43 -100 -89t-81 -98.5t-53.5 -111.5t-19.5 -129zM369 416q0 63 33.5 119.5 t105.5 117.5q78 -78 183 -173t216 -183q-70 -43 -140.5 -70.5t-154.5 -27.5q-55 0 -100 18.5t-77 48t-49 68.5t-17 82zM426 1190q0 59 37 94t92 35q66 0 96.5 -36t30.5 -87q0 -66 -36 -120t-101 -109q-66 76 -92.5 128t-26.5 95z" />
<glyph unicode="'" horiz-adv-x="442" d="M90 1534l33 -520h196l33 520h-262z" />
<glyph unicode="(" horiz-adv-x="626" d="M106 584q0 -248 62.5 -492t214.5 -487h252q-270 440 -270 989q0 268 67.5 514t196.5 461h-244q-147 -242 -213 -493t-66 -492z" />
<glyph unicode=")" horiz-adv-x="626" d="M0 -395h248q152 244 214 489.5t62 493.5q0 242 -63.5 490.5t-208.5 490.5h-252q129 -215 198.5 -464t69.5 -517q0 -274 -67.5 -519t-200.5 -464z" />
<glyph unicode="*" horiz-adv-x="786" d="M63 1087l91 -159l176 139l-33 -221h186l-32 221l174 -139l92 162l-207 81l207 82l-92 160l-174 -139l32 221h-186l33 -221l-174 139l-93 -162l207 -82z" />
<glyph unicode="+" horiz-adv-x="1159" d="M49 418h406v-418h247v418h408v219h-408v416h-247v-416h-406v-219z" />
<glyph unicode="," horiz-adv-x="528" d="M55 -258l109 -96q143 125 203.5 243.5t60.5 210.5t-47 148.5t-119 56.5q-53 0 -90 -25.5t-53.5 -64.5t-12 -82t32.5 -78q49 -57 36 -128.5t-120 -184.5z" />
<glyph unicode="-" horiz-adv-x="684" d="M90 416h504v209h-504v-209z" />
<glyph unicode="." horiz-adv-x="528" d="M96 143q0 -70 49.5 -119t118.5 -49q70 0 118 49.5t48 118.5q0 70 -48 119t-118 49t-119 -49t-49 -119z" />
<glyph unicode="/" horiz-adv-x="870" d="M49 0h258l527 1382h-256z" />
<glyph unicode="0" horiz-adv-x="1245" d="M86 514q0 -147 41 -248.5t110.5 -166t164 -93.5t200.5 -29q113 0 214.5 38t178 111t121.5 176.5t45 234.5q0 102 -27.5 199.5t-89 172t-162 119.5t-245.5 45q-109 0 -209 -38t-176 -110.5t-121 -176t-45 -234.5zM346 530q0 76 22.5 135.5t60.5 101.5t89 63.5t109 21.5 q137 0 204.5 -90.5t67.5 -231.5q0 -78 -22.5 -138t-60.5 -102t-89 -64.5t-106 -22.5q-72 0 -123.5 24.5t-85 68.5t-50 103.5t-16.5 130.5z" />
<glyph unicode="1" horiz-adv-x="700" d="M31 934l41 -217l209 86v-803h268v1053h-203z" />
<glyph unicode="2" horiz-adv-x="985" d="M92 0h805v231q-135 0 -250 -1t-198 -7l2 2l149 119q123 98 190.5 192.5t67.5 208.5q0 147 -103.5 236.5t-303.5 89.5q-98 0 -184.5 -20.5t-157.5 -53.5l36 -221q43 27 111 50.5t133 23.5q90 0 135 -43t45 -111q0 -37 -15 -69.5t-49 -69.5t-86 -81t-124 -101l-203 -162 v-213z" />
<glyph unicode="3" horiz-adv-x="937" d="M72 -362q45 -10 96 -17.5t104 -7.5q141 0 249 38t181.5 102.5t111.5 150.5t38 182q0 119 -66.5 209t-189.5 117v2q100 45 162.5 128t62.5 193q0 68 -25.5 128.5t-77.5 105.5t-131 71.5t-186 26.5q-162 0 -309 -59l25 -220q53 29 112.5 45.5t118.5 16.5q94 0 145.5 -44 t51.5 -120q0 -106 -99.5 -163.5t-304.5 -55.5v-209q94 10 173 4t136.5 -29.5t88 -66.5t30.5 -107q0 -98 -73.5 -160.5t-212.5 -62.5q-53 0 -102.5 9.5t-86.5 21.5z" />
<glyph unicode="4" horiz-adv-x="1134" d="M33 213l43 -213h555v-375h258v375h217v236h-217v821h-332zM285 231l350 574h2v-569h-70h-98q-51 0 -101.5 -1.5t-82.5 -3.5z" />
<glyph unicode="5" horiz-adv-x="950" d="M90 -375q76 -12 164 -12q133 0 245.5 38t193.5 104.5t127 158.5t46 203q0 92 -32.5 166.5t-95 129t-153.5 84t-206 29.5v273l444 -2v256h-692v-746q29 2 59.5 4t61.5 2q166 0 251 -63.5t85 -167.5q0 -100 -79 -169t-243 -69q-86 0 -151 17z" />
<glyph unicode="6" horiz-adv-x="1189" d="M106 567q0 -143 34 -253.5t97.5 -185.5t151.5 -113t199 -38q117 0 213 37t165.5 102.5t107.5 156.5t38 200q0 201 -113.5 319.5t-314.5 118.5q-98 0 -176 -32.5t-123 -90.5l-2 3q4 20 8 35.5t8 29.5q43 166 153 261t290 95q33 0 67.5 -3t67.5 -7v232q-25 2 -59.5 3 t-57.5 1q-170 0 -309 -58.5t-237.5 -169t-153 -272.5t-54.5 -371zM399 463q0 43 14.5 83t42 71.5t69.5 50t98 18.5q100 0 156.5 -62.5t56.5 -179.5q0 -104 -57.5 -173.5t-164.5 -69.5q-55 0 -95 20.5t-66.5 56t-40 84t-13.5 101.5z" />
<glyph unicode="7" horiz-adv-x="937" d="M45 797h166q86 0 162 1t135 2t88 1q-111 -256 -208 -558t-169 -618h293q70 338 169 644t210 562v222h-846v-256z" />
<glyph unicode="8" horiz-adv-x="1140" d="M90 346q0 -82 31 -149.5t89 -116.5t143 -76t194 -27q102 0 193 27t160 78t109 127t40 174q0 70 -22.5 125t-59.5 100t-85 81t-98 65q119 78 179.5 159.5t60.5 192.5q0 78 -30.5 141.5t-89 108.5t-140.5 69.5t-186 24.5q-102 0 -189.5 -27.5t-150 -79t-97.5 -122 t-35 -158.5q0 -115 61.5 -199t170.5 -147l2 -2q-43 -29 -87 -64t-81 -80t-59.5 -100t-22.5 -125zM365 375q0 72 52 129t130 104h2q100 -51 161.5 -106t61.5 -137q0 -78 -57.5 -123t-145.5 -45q-94 0 -149 49t-55 129zM381 1075q0 70 48 116t138 46q92 0 139.5 -46.5 t47.5 -109.5q0 -66 -43 -116t-131 -109l-2 2q-92 51 -144.5 100.5t-52.5 116.5z" />
<glyph unicode="9" horiz-adv-x="1189" d="M78 565q0 -98 28.5 -178t83 -136t132 -88t174.5 -32q96 0 169.5 34t118.5 87l2 -2q-4 -16 -9 -40t-9 -40q-45 -166 -153.5 -247t-290.5 -81q-33 0 -74 6.5t-72 16.5v-240q35 -6 72 -9t63 -3q190 0 336 59.5t242 171t145 270t49 357.5q0 156 -36.5 268.5t-102 186 t-157 108.5t-199.5 35q-115 0 -209 -38t-161.5 -105.5t-104.5 -159.5t-37 -201zM352 604q0 102 59.5 171t159.5 69q109 0 163 -72.5t54 -183.5q0 -92 -58 -159t-163 -67q-106 0 -160.5 62.5t-54.5 179.5z" />
<glyph unicode=":" horiz-adv-x="563" d="M115 143q0 -70 49 -119t117 -49q70 0 119 49.5t49 118.5q0 70 -49 119t-119 49q-68 0 -117 -49t-49 -119zM115 723q0 -70 49 -119t117 -49q70 0 119 49t49 119t-49 119t-119 49q-68 0 -117 -49t-49 -119z" />
<glyph unicode=";" horiz-adv-x="563" d="M76 -258l106 -96q143 125 203.5 243.5t62 211t-46.5 148.5t-120 56q-53 0 -90 -25.5t-53.5 -64.5t-11.5 -82t34 -78q47 -57 33.5 -128.5t-117.5 -184.5zM115 723q0 -70 49 -119t117 -49q70 0 119 49t49 119t-49.5 119t-118.5 49q-68 0 -117 -49t-49 -119z" />
<glyph unicode="&#x3c;" horiz-adv-x="1032" d="M94 514l654 -604l170 178l-488 428l488 434l-173 172z" />
<glyph unicode="=" horiz-adv-x="1169" d="M129 217h911v211h-911v-211zM129 608h911v211h-911v-211z" />
<glyph unicode="&#x3e;" horiz-adv-x="1032" d="M115 82l172 -172l651 608l-653 604l-170 -178l487 -428z" />
<glyph unicode="?" horiz-adv-x="882" d="M111 1241q180 -8 285.5 -65.5t105.5 -149.5q0 -49 -30 -88t-72 -78t-86 -82t-74.5 -98t-36.5 -127t28 -168h254q-27 82 -14.5 140.5t46.5 104.5t80 87t88 88t71.5 106.5t29.5 141.5q0 80 -38.5 153.5t-118.5 132t-201 95t-285 43.5zM205 133q0 -66 46 -111t114 -45 t113.5 45t45.5 111t-46 111t-113 45q-68 0 -114 -45t-46 -111z" />
<glyph unicode="@" horiz-adv-x="1660" d="M98 616q0 -147 45 -267t134.5 -206t220.5 -133t301 -47q41 0 89 3t95 10.5t90 17.5t76 22v193q-78 -29 -159 -41t-161 -12q-129 0 -224 34.5t-157.5 97t-93 151.5t-30.5 200q0 129 44 235.5t119.5 183.5t178 119t219.5 42q121 0 206 -34t139 -89.5t78.5 -128t24.5 -152.5 q0 -162 -50 -228.5t-136 -66.5q-55 0 -73.5 38t-2.5 134l62 340q-43 14 -103.5 24.5t-124.5 10.5q-109 0 -190.5 -37t-135 -101.5t-80 -150.5t-26.5 -184q0 -129 49 -191.5t142 -62.5q90 0 156.5 52t99.5 118h6q-4 -72 42 -121t148 -49q96 0 177 29.5t139.5 91t90 152.5 t31.5 214q0 121 -44 227.5t-128 185.5t-206.5 125t-278.5 46q-166 0 -311.5 -58.5t-254 -163t-171 -250.5t-62.5 -323zM666 631q0 43 11 93t34.5 91t57.5 68.5t79 27.5q41 0 78 -10l-15 -72q-29 -152 -81 -231.5t-109 -79.5q-55 0 -55 113z" />
<glyph unicode="A" horiz-adv-x="1282" d="M2 0h268l97 283h522l96 -283h295l-494 1382h-301zM434 494l125 352q41 121 66 231h2q12 -59 27.5 -111.5t35.5 -109.5l129 -362h-385z" />
<glyph unicode="B" horiz-adv-x="1187" d="M143 0q131 0 235.5 -2t168.5 -2q156 0 262 39t172 100.5t93.5 138t27.5 152.5q0 51 -15.5 101.5t-46 92.5t-76.5 72.5t-108 42.5v4q98 39 158.5 122t60.5 188q0 166 -119.5 254t-345.5 88q-129 0 -254 -3.5t-213 -7.5v-1380zM410 221v387q23 2 61 2h55q131 0 211 -44 t80 -146q0 -94 -65.5 -150.5t-196.5 -56.5q-47 0 -84 2t-61 6zM410 811v360q35 2 74.5 3.5t80.5 1.5q127 0 178.5 -46t51.5 -124q0 -92 -70 -144.5t-207 -52.5h-59q-25 0 -49 2z" />
<glyph unicode="C" horiz-adv-x="1159" d="M78 647q0 -129 31.5 -248.5t106.5 -213t197 -148.5t304 -55q98 0 188 16t168 45l-31 238q-53 -25 -128.5 -41.5t-139.5 -16.5q-211 0 -307 121t-96 348q0 100 23.5 185.5t71.5 146.5t120.5 96t169.5 35q139 0 278 -41l29 242q-68 18 -143.5 27.5t-149.5 9.5 q-174 0 -304 -55.5t-216 -154t-129 -235.5t-43 -301z" />
<glyph unicode="D" horiz-adv-x="1366" d="M143 2q88 -4 182.5 -7t202.5 -3q168 0 308.5 46t242 137t156.5 226.5t55 313.5q0 182 -49 310t-140 210t-221 119t-290 37q-129 0 -247 -3.5t-200 -7.5v-1378zM410 229v932q33 4 73.5 5t87.5 1q119 0 201 -31.5t133 -93t75 -149.5t24 -199q0 -123 -34 -213t-93.5 -148.5 t-141.5 -86t-180 -27.5q-41 0 -79 3t-66 7z" />
<glyph unicode="E" horiz-adv-x="1009" d="M143 0h752v227h-485v375h460v217h-460v340h485v223h-752v-1382z" />
<glyph unicode="F" horiz-adv-x="952" d="M143 0h267v582h446v219h-446v356h473v225h-740v-1382z" />
<glyph unicode="G" horiz-adv-x="1382" d="M74 659q0 -158 47 -283.5t137 -213.5t220 -135t294 -47q125 0 247 22.5t226 63.5v659h-266v-481q-80 -25 -176 -25q-211 0 -326 122t-115 343q0 117 35 206t97.5 150.5t148.5 93t188 31.5q98 0 190.5 -18.5t176.5 -50.5l41 247q-90 27 -188.5 43.5t-202.5 16.5 q-180 0 -323.5 -55.5t-244 -153.5t-153.5 -235.5t-53 -299.5z" />
<glyph unicode="H" horiz-adv-x="1406" d="M143 0h267v600h585v-600h267v1382h-267v-553h-585v553h-267v-1382z" />
<glyph unicode="I" horiz-adv-x="552" d="M143 0h267v1382h-267v-1382z" />
<glyph unicode="J" horiz-adv-x="686" d="M0 -2q35 -6 76 -11t96 -5q104 0 176 31.5t116 86t62.5 128t18.5 159.5v995h-266v-985q0 -113 -40 -151.5t-112 -38.5q-37 0 -69.5 5t-57.5 15v-229z" />
<glyph unicode="K" horiz-adv-x="1222" d="M143 0h267v664l444 -664h350l-528 715l506 667h-324l-448 -626v626h-267v-1382z" />
<glyph unicode="L" horiz-adv-x="878" d="M143 0h715v233h-448v1149h-267v-1382z" />
<glyph unicode="M" horiz-adv-x="1804" d="M66 0h270l78 637q12 92 22 176t17 176h4q12 -84 35.5 -173t52.5 -175l211 -641h264l219 694q27 84 44 157t32 138h4q8 -72 17.5 -151.5t25.5 -178.5l98 -659h281l-215 1382h-309l-238 -714q-27 -78 -44 -142.5t-34 -144.5h-4q-27 145 -76 291l-231 710h-311z" />
<glyph unicode="N" horiz-adv-x="1431" d="M143 0h258v494q0 61 -1 130.5t-2 137t-4 128t-5 105.5q31 -68 68 -143.5t82 -153.5l405 -698h344v1382h-258v-430q0 -63 1 -138t2 -150.5t4 -145t7 -121.5q-39 78 -80.5 162t-89.5 164l-385 659h-346v-1382z" />
<glyph unicode="O" d="M68 674q0 -160 38.5 -289t116.5 -220t197 -139.5t276 -48.5q141 0 264 50.5t214.5 145.5t144.5 230.5t53 307.5q0 178 -46 308t-130 216t-199.5 128t-253.5 42q-139 0 -262 -50t-215 -144.5t-145 -229.5t-53 -307zM352 702q0 117 31 204t81 144.5t116.5 86t138.5 28.5 q180 0 274 -122t94 -353q0 -125 -32.5 -214t-86 -146.5t-120 -84t-133.5 -26.5q-92 0 -161 35t-114 97.5t-66.5 151.5t-21.5 199z" />
<glyph unicode="P" horiz-adv-x="1087" d="M143 0h267v487q25 -4 47 -4h43q125 0 225 37t171 101.5t107.5 153t36.5 188.5q0 205 -135 316.5t-391 111.5q-102 0 -193.5 -2.5t-177.5 -6.5v-1382zM410 711v460q23 2 45 3h49q135 0 197.5 -62t62.5 -166q0 -113 -77 -176t-200 -65q-39 0 -77 6z" />
<glyph unicode="Q" d="M68 674q0 -160 38.5 -289t116.5 -220t197 -139.5t276 -48.5q141 0 264 50.5t214.5 145.5t144.5 230.5t53 307.5q0 178 -46 308t-130 216t-199.5 128t-253.5 42q-139 0 -262 -50t-215 -144.5t-145 -229.5t-53 -307zM352 702q0 117 31 204t81 144.5t116.5 86t138.5 28.5 q180 0 274 -122t94 -353q0 -125 -32.5 -214t-86 -146.5t-120 -84t-133.5 -26.5q-92 0 -161 35t-114 97.5t-66.5 151.5t-21.5 199zM618 -127v-235q57 7 108 7q53 0 98 -7q89 -15 178.5 -34.5t191.5 -31.5q33 -3 72 -3q76 0 170 15v234q-77 -11 -142 -11q-43 0 -80 5 q-94 12 -181 31.5t-183 32.5q-43 6 -94 6q-63 0 -138 -9z" />
<glyph unicode="R" horiz-adv-x="1161" d="M143 0h267v571h10l385 -571h330l-332 465q-27 35 -55.5 74t-57.5 77q78 12 143.5 45t111.5 83.5t71.5 115t25.5 141.5q0 106 -35.5 180t-101 120.5t-158 68t-206.5 21.5q-121 0 -218.5 -2.5t-179.5 -6.5v-1382zM410 768v399q20 4 47.5 5.5t56.5 1.5q250 0 250 -199 q0 -98 -68.5 -154.5t-189.5 -56.5q-31 0 -56.5 1t-39.5 3z" />
<glyph unicode="S" horiz-adv-x="1030" d="M82 989q0 -115 43 -184.5t107.5 -113.5t139 -71.5t139 -56t108 -67.5t43.5 -105q0 -96 -69 -139t-171 -43q-76 0 -152.5 14.5t-136.5 34.5l-16 -248q66 -16 137.5 -24.5t144.5 -8.5q127 0 228.5 34t172 94.5t108.5 142.5t38 180q0 109 -43 176.5t-107.5 112.5t-140 73.5 t-140 58.5t-107.5 67.5t-43 99.5q0 74 57 121t174 47q63 0 125.5 -10.5t122.5 -26.5l14 233q-61 10 -125.5 17.5t-124.5 7.5q-125 0 -222 -31t-164.5 -85t-103.5 -131t-36 -169z" />
<glyph unicode="T" horiz-adv-x="1044" d="M31 1155h358v-1155h266v1155h359v227h-983v-227z" />
<glyph unicode="U" horiz-adv-x="1394" d="M143 479q0 -98 22.5 -189t82 -161t163 -111t267.5 -41q274 0 423.5 137.5t149.5 422.5v845h-264v-862q0 -176 -68.5 -248.5t-222.5 -72.5q-86 0 -141 21.5t-88 61.5t-45 94t-12 120v886h-267v-903z" />
<glyph unicode="V" horiz-adv-x="1286" d="M6 1382l481 -1382h308l483 1382h-272l-273 -792q-29 -88 -47 -151.5t-35 -135.5h-4q-18 76 -39.5 143.5t-42.5 126.5l-268 809h-291z" />
<glyph unicode="W" horiz-adv-x="1947" d="M49 1382l352 -1382h310l200 768q37 135 52 279h2q10 -74 22 -147t31 -138l201 -762h327l352 1382h-266l-188 -772q-16 -61 -28.5 -126.5t-22.5 -137.5h-2q-10 72 -24.5 141.5t-31.5 126.5l-213 768h-282l-211 -772q-18 -66 -30.5 -134t-23.5 -138h-2q-10 72 -22 142.5 t-29 137.5l-188 764h-285z" />
<glyph unicode="X" horiz-adv-x="1286" d="M20 0h316l297 508l297 -508h336l-455 709l408 673h-304l-278 -479l-281 479h-309l414 -675z" />
<glyph unicode="Y" horiz-adv-x="1148" d="M6 1382l432 -895v-487h267v489l440 893h-283l-174 -370q-31 -66 -59.5 -131.5t-50.5 -124.5h-5q-20 53 -42.5 110.5t-51.5 118.5l-182 397h-291z" />
<glyph unicode="Z" horiz-adv-x="1099" d="M92 0h918v246h-299h-201t-98 -4q18 25 32.5 48t30.5 48l526 831v213h-892v-239h319q104 0 159.5 1t92.5 3q-25 -33 -46.5 -64.5t-43.5 -66.5l-498 -811v-205z" />
<glyph unicode="[" horiz-adv-x="671" d="M145 -420h453v211h-207v1593h207v207h-453v-2011z" />
<glyph unicode="\" horiz-adv-x="847" d="M33 1382l534 -1382h252l-540 1382h-246z" />
<glyph unicode="]" horiz-adv-x="671" d="M74 -209v-211h450v2011h-450v-207h205v-1593h-205z" />
<glyph unicode="^" horiz-adv-x="1095" d="M102 782l174 -92l256 506l269 -506l188 94l-350 598h-203z" />
<glyph unicode="_" horiz-adv-x="1024" d="M0 -305v-211h1024v211h-1024z" />
<glyph unicode="`" horiz-adv-x="765" d="M170 1346l377 -195l92 152l-356 225z" />
<glyph unicode="a" horiz-adv-x="1130" d="M78 248q0 -123 75.5 -195.5t215.5 -72.5q115 0 201.5 54t123.5 140l2 -2q-6 -41 -8 -85t-2 -89q44 -2 91 -2q58 0 120 3q111 5 209 17v164q-45 4 -93 9.5t-85 11.5v485q0 84 -19.5 149.5t-67.5 111.5t-129 69.5t-204 23.5q-98 0 -192.5 -17t-172.5 -46l23 -219 q66 37 148.5 58.5t152.5 21.5q111 0 155 -41t44 -121v-55q-129 0 -238 -24t-186.5 -71t-120.5 -116.5t-43 -161.5zM328 289q0 31 14 59.5t51 52t102.5 37t170.5 13.5v-25q0 -47 -15.5 -91t-44 -78t-68.5 -55.5t-89 -21.5q-57 0 -89 30t-32 79z" />
<glyph unicode="b" horiz-adv-x="1153" d="M-27 1315q45 -4 93.5 -9.5t85.5 -11.5v-1265q88 -25 178 -37t200 -12q131 0 233.5 41.5t173.5 118.5t107.5 184.5t36.5 236.5q0 227 -95 352t-279 125q-109 0 -189 -48t-119 -132h-2q8 41 12.5 96.5t4.5 102.5v440q-51 2 -102 2q-64 0 -126 -3q-114 -5 -213 -17v-164z M414 207v287q0 63 15 122.5t43 104.5t68 72.5t91 27.5h1q173 0 173 -286q0 -188 -71.5 -267.5t-184.5 -79.5q-80 0 -135 19z" />
<glyph unicode="c" horiz-adv-x="870" d="M70 475q0 -129 31.5 -223t91 -153.5t144.5 -88t191 -28.5q82 0 154 13.5t125 33.5l-21 223q-41 -23 -94 -33t-106 -10q-131 0 -186.5 81t-55.5 212q0 145 62.5 230t187.5 85q49 0 96 -10t88 -27l27 228q-99 28 -202 28h-7q-135 0 -234.5 -43t-164 -118.5t-96 -178 t-31.5 -221.5z" />
<glyph unicode="d" horiz-adv-x="1200" d="M72 455q0 -219 92 -348.5t278 -129.5q117 0 199 53.5t123 139.5h4q-6 -41 -9 -87t-3 -85q45 -2 92 -2q59 0 121 3q111 5 209 17v164q-45 4 -93.5 9.5t-85.5 11.5v1296q-50 2 -101 2q-64 0 -126 -3q-114 -5 -211 -17v-164q45 -4 93 -9.5t85 -11.5v-266q-35 4 -65.5 6 t-63.5 2q-127 0 -227 -43t-169 -119.5t-105.5 -183t-36.5 -235.5zM346 483q0 188 71.5 267t184.5 79q35 0 69 -4t68 -12v-285q0 -66 -15 -126t-43 -106t-69 -73.5t-92 -27.5q-174 0 -174 288z" />
<glyph unicode="e" horiz-adv-x="1052" d="M70 500q0 -270 130 -395t373 -125q96 0 189.5 16t175.5 49l-25 203q-66 -31 -143.5 -47.5t-153.5 -16.5q-280 0 -280 277v6h631q4 33 6 62.5t2 56.5q0 94 -25.5 177t-78 144.5t-133.5 97t-191 35.5q-115 0 -204 -41t-149.5 -112.5t-92 -171t-31.5 -215.5zM340 645 q10 92 63.5 147.5t135.5 55.5q84 0 132 -54q44 -49 44 -134v-15h-375z" />
<glyph unicode="f" horiz-adv-x="724" d="M16 815h179v-815h260v815h237v203h-237v86q0 102 40 148t126 46q29 0 62.5 -4t64.5 -14l18 215q-41 10 -83 13t-83 3q-211 0 -308 -101t-97 -310v-82h-179v-203z" />
<glyph unicode="g" horiz-adv-x="1136" d="M72 455q0 -233 96 -354t281 -121q102 0 181 50t120 138h4q-8 -41 -9.5 -76t-1.5 -72v-53q0 -141 -73.5 -197.5t-218.5 -56.5q-72 0 -154 16.5t-150 43.5l-20 -244q66 -16 145.5 -27.5t165.5 -11.5q168 0 277.5 41t172 108.5t87 152.5t24.5 175v1039q-84 14 -174 22 t-198 8q-135 0 -238.5 -43t-174.5 -119.5t-106.5 -183t-35.5 -235.5zM346 483q0 188 71.5 266t184.5 78q78 0 137 -14v-281q0 -68 -15 -128t-43 -106t-69 -73.5t-92 -27.5q-174 0 -174 286z" />
<glyph unicode="h" horiz-adv-x="1179" d="M-27 1315q45 -4 93.5 -9.5t85.5 -11.5v-1294h262v492q0 68 18.5 127t50 104t74.5 71.5t92 26.5q74 0 100.5 -45t26.5 -125v-651h260v715q0 68 -15 126t-50 103t-93.5 70.5t-144.5 25.5q-121 0 -206 -52t-130 -138l-2 2q10 45 14.5 102.5t4.5 104.5v438q-51 2 -102 2 q-64 0 -126 -3q-114 -5 -213 -17v-164z" />
<glyph unicode="i" horiz-adv-x="610" d="M31 838q45 -4 93 -9.5t85 -11.5v-817h260v1020q-51 2 -102 2q-63 0 -125 -3q-112 -5 -211 -18v-163zM176 1309q0 -66 48 -113t114 -47q68 0 116 47t48 113t-48 111.5t-116 45.5q-33 0 -62.5 -12t-51 -33.5t-35 -50.5t-13.5 -61z" />
<glyph unicode="j" horiz-adv-x="614" d="M-68 -487q33 -10 72 -15.5t74 -5.5q111 0 186.5 28.5t121.5 84t66.5 136.5t20.5 183v1096q-51 2 -102 2q-63 0 -127 -3q-113 -5 -211 -18v-163q45 -4 93 -9.5t85 -11.5v-919q0 -104 -29.5 -145.5t-109.5 -41.5q-29 0 -62 7.5t-61 17.5zM178 1309q0 -66 48 -113t116 -47 q66 0 114 47t48 113t-48 111.5t-114 45.5q-68 0 -116 -46t-48 -111z" />
<glyph unicode="k" horiz-adv-x="1079" d="M-27 1315q45 -4 93.5 -9.5t85.5 -11.5v-1294h262v504l315 -504h328l-385 553l358 465h-319l-297 -424v903q-51 2 -102 2q-64 0 -126 -3q-114 -5 -213 -17v-164z" />
<glyph unicode="l" horiz-adv-x="555" d="M-27 1315q45 -4 93.5 -9.5t85.5 -11.5v-1294h262v1497q-51 2 -102 2q-64 0 -126 -3q-114 -5 -213 -17v-164z" />
<glyph unicode="m" horiz-adv-x="1839" d="M31 838q45 -4 93 -9.5t85 -11.5v-817h260v487q0 72 19.5 133.5t52 105.5t74.5 69.5t87 25.5q76 0 98.5 -50t22.5 -126v-645h258v487q0 74 20.5 135.5t53.5 105.5t75 68.5t85 24.5q72 0 96.5 -47t24.5 -129v-645h262v700q0 174 -79 257t-226 83q-66 0 -119 -17t-94 -47 t-71 -67t-48 -73q-10 37 -29.5 73.5t-52.5 65.5t-82 47t-117 18q-115 0 -201.5 -55t-134.5 -149h-2q6 45 9.5 96t3.5 88q-45 2 -93 2q-59 0 -121 -3q-112 -5 -210 -18v-163z" />
<glyph unicode="n" horiz-adv-x="1234" d="M31 838q45 -4 93 -9.5t85 -11.5v-817h260v492q0 68 18.5 127t50 104t75.5 71.5t94 26.5q72 0 98 -45t26 -125v-651h261v715q0 68 -15.5 126t-50.5 103t-93.5 70.5t-144.5 25.5q-125 0 -212 -56t-134 -148l-2 2q8 41 11.5 93t3.5 89q-46 2 -94 2q-60 0 -121 -3 q-111 -5 -209 -18v-163z" />
<glyph unicode="o" horiz-adv-x="1132" d="M68 492q0 -135 33.5 -232.5t95 -160t149.5 -91t197 -28.5q115 0 210 40.5t164.5 113.5t107.5 173t38 221q0 262 -129 386t-346 124q-117 0 -212 -41t-164 -113.5t-106.5 -173t-37.5 -218.5zM338 518q0 78 19.5 134.5t52 93t74.5 54t85 17.5q117 0 170.5 -78t53.5 -225 q0 -156 -64.5 -233.5t-163.5 -77.5q-227 0 -227 315z" />
<glyph unicode="p" horiz-adv-x="1210" d="M31 838q45 -4 93 -9.5t85 -11.5v-1311h260v488q33 -4 63.5 -6t67.5 -2q131 0 231.5 40t168 115.5t102.5 182t35 239.5q0 227 -95.5 351t-277.5 124q-117 0 -197 -50t-123 -140h-4q6 41 8.5 87t2.5 85q-45 2 -92 2q-59 0 -120 -3q-110 -5 -208 -18v-163zM469 207v282 q0 66 15.5 126.5t43 106.5t68.5 73.5t92 27.5h1q173 0 173 -288q0 -188 -71.5 -267.5t-184.5 -79.5q-76 0 -137 19z" />
<glyph unicode="q" horiz-adv-x="1144" d="M74 455q0 -236 96 -357t281 -121q102 0 181 50.5t120 138.5l4 -2q-10 -49 -12.5 -102.5t-2.5 -94.5v-463q48 -2 95 -2q66 0 132 4q114 5 212 17v164q-45 4 -93.5 9t-85.5 11v1299q-84 14 -174 22t-198 8q-135 0 -238.5 -43t-174.5 -119.5t-106.5 -183t-35.5 -235.5z M348 483q0 188 72 267t184 79q39 0 72 -4t65 -10v-283q0 -68 -15 -128t-44 -107t-70 -74.5t-92 -27.5q-172 0 -172 288z" />
<glyph unicode="r" horiz-adv-x="792" d="M31 838q45 -4 93 -9.5t85 -11.5v-817h260v416q0 373 219 373q30 0 64 -7l12 258q-17 2 -33 2q-46 0 -85 -13q-52 -17 -92 -49t-67.5 -75t-46.5 -92h-4q10 53 14.5 109.5t4.5 97.5q-46 2 -94 2q-60 0 -121 -3q-111 -5 -209 -18v-163z" />
<glyph unicode="s" horiz-adv-x="854" d="M84 715q0 -86 30.5 -139.5t76 -85t99.5 -50t99 -37t76 -43t31 -69.5q0 -51 -45 -80t-121 -29q-59 0 -115.5 9.5t-103.5 21.5l-7 -215q49 -8 103.5 -13t109.5 -5q104 0 188.5 24.5t144 68.5t91 105t31.5 137q0 82 -30.5 134.5t-78 85t-100.5 53t-100 40t-78 44t-31 65.5 q0 47 37 76t115 29q47 0 96 -7.5t92 -19.5l8 207q-47 8 -94 13t-92 5q-109 0 -189.5 -25.5t-134 -70.5t-81 -103.5t-27.5 -125.5z" />
<glyph unicode="t" horiz-adv-x="768" d="M12 815h176v-516q0 -90 14.5 -150.5t48.5 -98.5t91 -54t141 -16q53 0 108.5 7t104.5 19v211q-59 -16 -127 -16t-94 34.5t-26 133.5v446h247v203h-247v383l-263 -70v-313h-174v-203z" />
<glyph unicode="u" horiz-adv-x="1286" d="M27 838q45 -4 92 -9.5t84 -11.5v-514q0 -68 15 -126t50 -103t94.5 -71t145.5 -26q125 0 212 56.5t132 148.5l4 -2q-8 -43 -10 -95t-2 -87q45 -2 92 -2q59 0 121 3q111 5 209 17v164q-45 4 -93.5 9.5t-85.5 11.5v817h-260v-492q0 -68 -18 -127t-50 -104t-76 -71.5 t-93 -26.5q-72 0 -98.5 45t-26.5 125v653q-47 2 -96 2q-61 0 -125 -3q-115 -5 -217 -18v-163z" />
<glyph unicode="v" horiz-adv-x="1036" d="M6 1018l377 -1018h266l381 1018h-278l-164 -467q-18 -53 -33.5 -108.5t-28.5 -108.5h-4q-29 113 -67 225l-162 459h-287z" />
<glyph unicode="w" horiz-adv-x="1630" d="M18 1018l312 -1018h270l129 424q20 63 36.5 123.5t33.5 132.5h2q14 -66 27.5 -120t29.5 -107l148 -453h284l320 1018h-269l-114 -397q-23 -76 -39.5 -147t-32.5 -148h-4q-16 76 -34.5 147.5t-47.5 159.5l-125 385h-252l-123 -397q-23 -68 -40 -138.5t-33 -156.5h-2 q-18 78 -39 154.5t-41 152.5l-109 385h-287z" />
<glyph unicode="x" horiz-adv-x="1081" d="M23 0h313l196 342l197 -342h330l-336 516l317 502h-288l-199 -336l-197 336h-313l330 -504z" />
<glyph unicode="y" horiz-adv-x="1028" d="M0 -492q33 -8 71 -12t72 -4q88 0 153.5 20.5t119 67.5t98.5 127t90 199l418 1112h-281l-120 -346q-12 -35 -25.5 -77t-27 -85t-26 -85t-20.5 -77h-2q-16 70 -36.5 142.5t-43.5 138.5l-137 389h-291l375 -1018l-35 -98q-20 -57 -40.5 -94t-45 -58.5t-51.5 -30t-59 -8.5 q-37 0 -71 6.5t-69 16.5z" />
<glyph unicode="z" horiz-adv-x="921" d="M92 0h733v240h-178h-63h-66q-31 0 -58.5 -1t-43.5 -1l401 593v187h-713v-234h181q74 0 131 1t86 3l-410 -602v-186z" />
<glyph unicode="{" horiz-adv-x="741" d="M55 543q102 -6 153.5 -54.5t51.5 -175.5v-276q0 -240 86 -348.5t287 -108.5h43v211q-49 0 -83 10.5t-53.5 37t-27.5 74.5t-8 122v274q0 164 -51.5 241t-137.5 91v2q86 16 137.5 88t51.5 236v176q0 74 8 121t27.5 73.5t53.5 36.5t83 10v207h-43q-203 0 -288 -114.5 t-85 -337.5v-178q0 -66 -12 -107t-38 -65.5t-65 -36t-90 -13.5v-196z" />
<glyph unicode="|" horiz-adv-x="565" d="M174 -512h209v2048h-209v-2048z" />
<glyph unicode="}" horiz-adv-x="737" d="M72 -209v-211h45q199 0 284.5 108.5t85.5 348.5v276q0 127 51.5 175.5t153.5 54.5v196q-53 2 -91 13.5t-63.5 37t-38 67.5t-12.5 110v172q0 223 -84 337.5t-286 114.5h-45v-207q49 0 82.5 -10t54 -36.5t29 -73.5t8.5 -121v-182q0 -160 50 -233t138 -85v-2 q-86 -14 -137 -91t-51 -241v-274q0 -74 -8.5 -122t-29 -74.5t-54 -37t-82.5 -10.5z" />
<glyph unicode="~" horiz-adv-x="1173" d="M80 614l80 -194q33 31 83 57.5t113 26.5q53 0 102.5 -18.5t99.5 -40t106.5 -39t123.5 -17.5q92 0 170.5 37t131.5 100l-82 189q-49 -45 -103.5 -71t-109.5 -26t-100.5 17.5t-91.5 39t-100 40t-126 18.5q-96 0 -170 -35.5t-127 -83.5z" />
<glyph unicode="&#xa1;" horiz-adv-x="622" d="M143 885q0 -66 46.5 -110t113.5 -44q68 0 114 44t46 110t-46 110.5t-114 44.5t-114 -45t-46 -110zM158 -449h286l-32 1084h-226z" />
<glyph unicode="&#xa2;" horiz-adv-x="929" d="M82 551q0 -203 94 -330t281 -149v-211h196v209q51 4 97.5 15.5t87.5 27.5l-19 227q-45 -23 -97 -37t-112 -14q-70 0 -119 20.5t-79.5 57t-45 88t-14.5 110.5q0 139 71 214t191 75q111 0 197 -43l25 221q-47 16 -93.5 23.5t-89.5 11.5v176h-196v-190q-88 -16 -158 -60.5 t-118 -111t-73.5 -150.5t-25.5 -180z" />
<glyph unicode="&#xa3;" horiz-adv-x="999" d="M109 0h778v227h-307q-39 0 -78 -1t-72 -5q72 66 108.5 137.5t36.5 173.5q0 25 -2 53.5t-6 57.5h240v201h-258q-8 63 -14.5 120.5t-6.5 98.5q0 172 158 172q31 0 63.5 -4t69.5 -12l17 215q-41 8 -89.5 12t-89.5 4q-195 0 -294 -92t-99 -297q0 -47 8.5 -106.5t14.5 -110.5 h-170v-201h190q6 -66 9 -96.5t3 -46.5q0 -109 -55 -174.5t-155 -124.5v-201z" />
<glyph unicode="&#xa4;" horiz-adv-x="1126" d="M88 242l203 -144l141 195q25 -8 52.5 -13.5t60.5 -5.5q80 0 151 33l158 -211l201 146l-162 202q35 47 55.5 109.5t20.5 134.5q0 78 -15.5 136.5t-44.5 99.5l146 182l-199 145l-143 -196q-31 12 -65 17t-66 5q-82 0 -148 -26l-145 198l-199 -141l148 -188 q-80 -102 -80 -252q0 -82 18.5 -143.5t50.5 -108.5zM387 678q0 104 52.5 156.5t121.5 52.5q96 0 137 -53.5t41 -149.5q0 -115 -54 -167t-122 -52q-94 0 -135 60.5t-41 152.5z" />
<glyph unicode="&#xa5;" horiz-adv-x="1230" d="M45 1382l375 -749h-256v-166h317v-119h-317v-168h317v-180h264v180h318v168h-318v119h318v166h-254l381 749h-281l-178 -350q-33 -66 -61.5 -130t-51.5 -128h-4q-18 53 -41.5 110.5t-54.5 121.5l-182 376h-291z" />
<glyph unicode="&#xa7;" horiz-adv-x="1044" d="M121 690q0 -90 32.5 -162.5t82 -133t107.5 -113t107.5 -98.5t82 -90t32.5 -91q0 -53 -40 -92t-136 -39q-39 0 -79 7t-74 18l-17 -228q35 -6 81 -11t83 -5q127 0 215 31.5t143.5 81t80 111t24.5 120.5q0 63 -19.5 116.5t-48.5 90.5q59 47 100.5 124t41.5 167 q0 88 -33 162.5t-82 137t-106.5 116t-106.5 101.5t-82 91t-33 88q0 59 37 91t119 32q74 0 141 -19l14 219q-31 8 -69.5 11.5t-79.5 3.5q-119 0 -202 -30t-136 -78t-77.5 -110.5t-24.5 -127.5q0 -117 63 -199q-61 -47 -101 -124t-40 -169zM358 723q0 84 50 123 q55 -61 105 -110.5t88 -94.5t60.5 -88t22.5 -92q0 -35 -13.5 -69t-35.5 -52q-74 70 -126 124t-86 98t-49.5 82t-15.5 79z" />
<glyph unicode="&#xa8;" horiz-adv-x="1118" d="M193 1327q0 -59 40.5 -100t100.5 -41q59 0 100 41t41 100t-41 100t-100 41t-100 -41t-41 -100zM606 1327q0 -59 41 -100t101 -41q59 0 100 41t41 100t-41 100t-100 41t-100.5 -41t-41.5 -100z" />
<glyph unicode="&#xa9;" horiz-adv-x="1560" d="M78 682q0 -145 54 -272t148.5 -222.5t222.5 -149.5t275 -54q145 0 272.5 55t222.5 150.5t150.5 222.5t55.5 272t-55.5 272t-150.5 222.5t-222.5 149.5t-272.5 54t-272 -55t-222.5 -150.5t-150.5 -222.5t-55 -272zM274 684q0 104 40 196.5t107.5 160t160 107.5t196.5 40 t195.5 -40t160 -108.5t107.5 -161t39 -196.5t-39 -196.5t-107.5 -160t-159.5 -107.5t-196 -40q-104 0 -196.5 40t-160 108.5t-107.5 161t-40 196.5zM444 676q0 -162 86 -258t244 -96q121 -1 209 40l-35 168q-33 -16 -68.5 -22t-74.5 -6q-143 0 -143 178q0 92 35.5 145.5 t117.5 53.5q37 0 72 -9.5t57 -25.5l29 174q-35 14 -76 22.5t-92 8.5q-94 0 -163 -31t-113 -82t-64.5 -118.5t-20.5 -141.5z" />
<glyph unicode="&#xaa;" horiz-adv-x="870" d="M80 846q0 -86 56.5 -142.5t168.5 -56.5q70 0 127 35t80 86l4 -2q-6 -25 -7 -51.5t-1 -48.5q78 -4 167 0t167 14v145q-29 4 -66 7.5t-67 7.5v63q0 47 1 99.5t1 97.5v65q0 45 -15.5 88t-50.5 77t-92 53.5t-143 19.5q-80 0 -151 -12.5t-132 -32.5l18 -176q55 25 112.5 40 t119.5 15q39 0 63.5 -9t36.5 -22.5t16.5 -31t4.5 -33.5v-31q-86 0 -163 -15.5t-133.5 -48t-89 -83t-32.5 -117.5zM287 874q0 53 50 78t161 25v-21q0 -20 -8.5 -45.5t-26 -48t-43 -38t-60.5 -15.5t-54 18.5t-19 46.5z" />
<glyph unicode="&#xab;" horiz-adv-x="1093" d="M86 508l219 -397l211 98l-180 299l178 307l-203 94zM530 508l242 -387l205 98l-195 289l193 295l-197 98z" />
<glyph unicode="&#xac;" horiz-adv-x="1142" d="M70 430h735v-305h231v518h-966v-213z" />
<glyph unicode="&#xad;" horiz-adv-x="684" d="M90 416h504v209h-504v-209z" />
<glyph unicode="&#xae;" horiz-adv-x="1155" d="M98 1090q0 -100 37 -186.5t101.5 -150t152.5 -100.5t189 -37q98 0 185 37t152.5 101.5t103.5 150.5t38 185q0 100 -38 186t-102.5 149.5t-151.5 99.5t-187 36q-98 0 -186.5 -37t-153 -100.5t-102.5 -149.5t-38 -184zM256 1092q0 66 25.5 124t68.5 102t101.5 69.5 t126.5 25.5q66 0 124 -26.5t101 -70.5t68.5 -103.5t25.5 -125.5q0 -68 -25.5 -126t-68.5 -101t-101.5 -68.5t-123.5 -25.5q-68 0 -126.5 25.5t-101.5 70.5t-68.5 103.5t-25.5 126.5zM410 862h122v174h15l78 -174h147l-67 146q-20 41 -35 55q41 12 66.5 44t25.5 85 q0 57 -38 92t-124 35h-190v-457zM532 1120v105h33q62 0 62 -47q0 -23 -17.5 -40.5t-54.5 -17.5h-23z" />
<glyph unicode="&#xaf;" horiz-adv-x="704" d="M119 1229h444v190h-444v-190z" />
<glyph unicode="&#xb0;" horiz-adv-x="794" d="M86 1231q0 -133 79 -209t216 -76q59 0 116.5 18.5t101.5 55.5t70.5 91t26.5 126q0 57 -17 108.5t-53 90.5t-93.5 61.5t-137.5 22.5q-57 0 -112.5 -19.5t-99.5 -56.5t-70.5 -91.5t-26.5 -121.5zM281 1233q0 55 31.5 89t80.5 34q57 0 83 -39t26 -80q0 -53 -30 -89t-81 -36 q-49 0 -79.5 32t-30.5 89z" />
<glyph unicode="&#xb1;" horiz-adv-x="1206" d="M98 545h381v-383h248v383h381v215h-381v379h-248v-379h-381v-215zM109 57v-219h989v219h-989z" />
<glyph unicode="&#xb4;" horiz-adv-x="804" d="M184 1303l90 -150l377 195l-108 180z" />
<glyph unicode="&#xb6;" horiz-adv-x="1218" d="M113 930q0 -92 28.5 -176t88 -146.5t150.5 -98.5t218 -36v909q-109 0 -198 -31.5t-152.5 -91t-99 -143.5t-35.5 -186zM614 12v-209h367v1371h133v208h-356v-1370h-144z" />
<glyph unicode="&#xb7;" horiz-adv-x="550" d="M106 588q0 -72 49.5 -121t120.5 -49q70 0 120 49t50 121q0 70 -50 120t-120 50q-72 0 -121 -50.5t-49 -119.5z" />
<glyph unicode="&#xb8;" horiz-adv-x="819" d="M252 -410l123 -100q96 41 150.5 89t75 100.5t11 108t-36.5 108.5h-239q49 -86 30.5 -164t-114.5 -142z" />
<glyph unicode="&#xba;" horiz-adv-x="872" d="M80 1018q0 -100 25.5 -171t70.5 -115t105.5 -63.5t132.5 -19.5q80 0 148.5 28t118.5 78t78.5 121.5t28.5 161.5q0 100 -25.5 170t-71.5 114t-108.5 63.5t-136.5 19.5q-78 0 -144 -26.5t-115.5 -77t-78 -122t-28.5 -161.5zM289 1030q0 51 12 88t32.5 60.5t47.5 34t53 10.5 q78 0 109.5 -54.5t31.5 -140.5q0 -109 -44 -154t-103 -45q-39 0 -65.5 16.5t-43 44.5t-23.5 64.5t-7 75.5z" />
<glyph unicode="&#xbb;" horiz-adv-x="1093" d="M117 801l194 -289l-192 -295l196 -96l248 391l-241 389zM578 813l180 -301l-178 -305l202 -96l226 401l-220 397z" />
<glyph unicode="&#xbf;" horiz-adv-x="882" d="M96 -35q0 -80 39 -153.5t119 -132t200.5 -95.5t284.5 -43l33 238q-180 6 -285.5 64.5t-105.5 150.5q0 49 29.5 88t71.5 78t86 82t75 98t37 127t-29 168h-254q27 -82 14.5 -140.5t-46 -105.5t-79.5 -88t-88 -88t-72 -106.5t-30 -141.5zM356 885q0 -66 46.5 -110t115.5 -44 q68 0 114 44t46 110t-46 110.5t-114 44.5q-70 0 -116 -45t-46 -110z" />
<glyph unicode="&#xc0;" horiz-adv-x="1282" d="M2 0h268l97 283h522l96 -283h295l-494 1382h-301zM307 1665l377 -195l92 152l-356 225zM434 494l125 352q41 121 66 231h2q12 -59 27.5 -111.5t35.5 -109.5l129 -362h-385z" />
<glyph unicode="&#xc1;" horiz-adv-x="1282" d="M2 0h268l97 283h522l96 -283h295l-494 1382h-301zM434 494l125 352q41 121 66 231h2q12 -59 27.5 -111.5t35.5 -109.5l129 -362h-385zM449 1622l90 -149l376 194l-108 180z" />
<glyph unicode="&#xc2;" horiz-adv-x="1282" d="M2 0h268l97 283h522l96 -283h295l-494 1382h-301zM330 1636l78 -151l227 129l231 -129l84 153l-313 179zM434 494l125 352q41 121 66 231h2q12 -59 27.5 -111.5t35.5 -109.5l129 -362h-385z" />
<glyph unicode="&#xc3;" horiz-adv-x="1282" d="M2 0h268l97 283h522l96 -283h295l-494 1382h-301zM276 1706l52 -174q29 29 64.5 48t74.5 19q47 0 80 -15t65.5 -34.5t71.5 -35t98 -15.5t117.5 27.5t93.5 58.5l-51 174q-27 -27 -64.5 -46t-80.5 -19q-45 0 -78 15t-67 34.5t-71.5 35t-93.5 15.5q-59 0 -113.5 -24.5 t-97.5 -63.5zM434 494l125 352q41 121 66 231h2q12 -59 27.5 -111.5t35.5 -109.5l129 -362h-385z" />
<glyph unicode="&#xc4;" horiz-adv-x="1282" d="M2 0h268l97 283h522l96 -283h295l-494 1382h-301zM285 1628q0 -59 41 -100t100 -41t100 41t41 100t-41 100t-100 41t-100 -40.5t-41 -100.5zM434 494l125 352q41 121 66 231h2q12 -59 27.5 -111.5t35.5 -109.5l129 -362h-385zM698 1628q0 -59 41 -100t101 -41 q59 0 100 41t41 100t-41 100t-100 41t-100.5 -40.5t-41.5 -100.5z" />
<glyph unicode="&#xc5;" horiz-adv-x="1282" d="M2 0h268l97 283h522l96 -283h295l-494 1378q51 35 81 87t30 118q0 53 -20.5 99.5t-55.5 79t-82 51t-102 18.5q-53 0 -101.5 -18.5t-83 -51t-55 -79t-20.5 -99.5q0 -66 28.5 -119t77.5 -86zM434 494l125 352q41 121 66 231h2q12 -59 27.5 -111.5t35.5 -109.5l129 -362 h-385zM528 1583q0 45 32 77t77 32t75.5 -32t30.5 -77t-30.5 -76.5t-75.5 -31.5t-77 31.5t-32 76.5z" />
<glyph unicode="&#xc6;" horiz-adv-x="1607" d="M-78 0h273l147 305h403v-305h748v227h-492v375h461v217h-461v340h478v223h-873zM432 514l182 356q41 84 70 150.5t57 138.5h4v-645h-313z" />
<glyph unicode="&#xc7;" horiz-adv-x="1159" d="M78 647q0 -129 31.5 -248.5t106.5 -213t197 -148.5t304 -55q98 0 188 16t168 45l-31 238q-53 -25 -128.5 -41.5t-139.5 -16.5q-211 0 -307 121t-96 348q0 100 23.5 185.5t71.5 146.5t120.5 96t169.5 35q139 0 278 -41l29 242q-68 18 -143.5 27.5t-149.5 9.5 q-174 0 -304 -55.5t-216 -154t-129 -235.5t-43 -301zM469 -410l123 -100q96 41 150.5 89t75 100.5t11.5 108t-36 108.5h-240q49 -86 30.5 -164t-114.5 -142z" />
<glyph unicode="&#xc8;" horiz-adv-x="1009" d="M143 0h752v227h-485v375h460v217h-460v340h485v223h-752v-1382zM223 1665l377 -195l92 152l-356 225z" />
<glyph unicode="&#xc9;" horiz-adv-x="1009" d="M143 0h752v227h-485v375h460v217h-460v340h485v223h-752v-1382zM334 1622l90 -149l377 194l-109 180z" />
<glyph unicode="&#xca;" horiz-adv-x="1009" d="M143 0h752v227h-485v375h460v217h-460v340h485v223h-752v-1382zM207 1636l78 -151l227 129l231 -129l84 153l-313 179z" />
<glyph unicode="&#xcb;" horiz-adv-x="1009" d="M143 0h752v227h-485v375h460v217h-460v340h485v223h-752v-1382zM166 1628q0 -59 41 -100t100 -41t100.5 41t41.5 100t-41 100t-101 41q-59 0 -100 -40.5t-41 -100.5zM580 1628q0 -59 41 -100t100 -41t100 41t41 100t-41 100t-100 41t-100 -40.5t-41 -100.5z" />
<glyph unicode="&#xcc;" horiz-adv-x="552" d="M8 1665l377 -195l92 152l-356 225zM143 0h267v1382h-267v-1382z" />
<glyph unicode="&#xcd;" horiz-adv-x="552" d="M63 1622l91 -149l376 194l-108 178zM143 0h267v1382h-267v-1382z" />
<glyph unicode="&#xce;" horiz-adv-x="552" d="M-29 1634l78 -151l227 131l234 -131l82 155l-313 179zM143 0h267v1382h-267v-1382z" />
<glyph unicode="&#xcf;" horiz-adv-x="552" d="M-74 1630q0 -59 41 -100t101 -41q59 0 100 41t41 100t-41 100.5t-100 41.5t-100.5 -41t-41.5 -101zM143 0h267v1382h-267v-1382zM340 1630q0 -59 41 -100t100 -41t100.5 41t41.5 100t-41 100.5t-101 41.5q-59 0 -100 -41t-41 -101z" />
<glyph unicode="&#xd1;" horiz-adv-x="1431" d="M143 0h258v494q0 61 -1 130.5t-2 137t-4 128t-5 105.5q31 -68 68 -143.5t82 -153.5l405 -698h344v1382h-258v-430q0 -63 1 -138t2 -150.5t4 -145t7 -121.5q-39 78 -80.5 162t-89.5 164l-385 659h-346v-1382zM348 1706l51 -174q29 29 65 48t75 19q47 0 79.5 -15 t65.5 -34.5t72 -35t98 -15.5t117.5 27.5t93.5 58.5l-51 174q-27 -27 -65 -46t-81 -19q-45 0 -77.5 15t-66.5 34.5t-72 35t-93 15.5q-59 0 -113.5 -24.5t-97.5 -63.5z" />
<glyph unicode="&#xd2;" d="M68 674q0 -160 38.5 -289t116.5 -220t197 -139.5t276 -48.5q141 0 264 50.5t214.5 145.5t144.5 230.5t53 307.5q0 178 -46 308t-130 216t-199.5 128t-253.5 42q-139 0 -262 -50t-215 -144.5t-145 -229.5t-53 -307zM352 702q0 117 31 204t81 144.5t116.5 86t138.5 28.5 q180 0 274 -122t94 -353q0 -125 -32.5 -214t-86 -146.5t-120 -84t-133.5 -26.5q-92 0 -161 35t-114 97.5t-66.5 151.5t-21.5 199zM442 1665l377 -195l92 152l-356 225z" />
<glyph unicode="&#xd3;" d="M68 674q0 -160 38.5 -289t116.5 -220t197 -139.5t276 -48.5q141 0 264 50.5t214.5 145.5t144.5 230.5t53 307.5q0 178 -46 308t-130 216t-199.5 128t-253.5 42q-139 0 -262 -50t-215 -144.5t-145 -229.5t-53 -307zM352 702q0 117 31 204t81 144.5t116.5 86t138.5 28.5 q180 0 274 -122t94 -353q0 -125 -32.5 -214t-86 -146.5t-120 -84t-133.5 -26.5q-92 0 -161 35t-114 97.5t-66.5 151.5t-21.5 199zM575 1622l91 -149l376 194l-108 180z" />
<glyph unicode="&#xd4;" d="M68 674q0 -160 38.5 -289t116.5 -220t197 -139.5t276 -48.5q141 0 264 50.5t214.5 145.5t144.5 230.5t53 307.5q0 178 -46 308t-130 216t-199.5 128t-253.5 42q-139 0 -262 -50t-215 -144.5t-145 -229.5t-53 -307zM352 702q0 117 31 204t81 144.5t116.5 86t138.5 28.5 q180 0 274 -122t94 -353q0 -125 -32.5 -214t-86 -146.5t-120 -84t-133.5 -26.5q-92 0 -161 35t-114 97.5t-66.5 151.5t-21.5 199zM428 1636l78 -151l227 129l232 -129l84 153l-314 179z" />
<glyph unicode="&#xd5;" d="M68 674q0 -160 38.5 -289t116.5 -220t197 -139.5t276 -48.5q141 0 264 50.5t214.5 145.5t144.5 230.5t53 307.5q0 178 -46 308t-130 216t-199.5 128t-253.5 42q-139 0 -262 -50t-215 -144.5t-145 -229.5t-53 -307zM352 702q0 117 31 204t81 144.5t116.5 86t138.5 28.5 q180 0 274 -122t94 -353q0 -125 -32.5 -214t-86 -146.5t-120 -84t-133.5 -26.5q-92 0 -161 35t-114 97.5t-66.5 151.5t-21.5 199zM369 1712l51 -174q29 29 64.5 48.5t74.5 19.5q47 0 80 -15.5t65.5 -35t71.5 -35t98 -15.5t117.5 27.5t93.5 58.5l-51 174q-27 -27 -64.5 -46 t-80.5 -19q-45 0 -78 15.5t-66.5 34.5t-71.5 34.5t-93 15.5q-59 0 -113.5 -24.5t-97.5 -63.5z" />
<glyph unicode="&#xd6;" d="M68 674q0 -160 38.5 -289t116.5 -220t197 -139.5t276 -48.5q141 0 264 50.5t214.5 145.5t144.5 230.5t53 307.5q0 178 -46 308t-130 216t-199.5 128t-253.5 42q-139 0 -262 -50t-215 -144.5t-145 -229.5t-53 -307zM352 702q0 117 31 204t81 144.5t116.5 86t138.5 28.5 q180 0 274 -122t94 -353q0 -125 -32.5 -214t-86 -146.5t-120 -84t-133.5 -26.5q-92 0 -161 35t-114 97.5t-66.5 151.5t-21.5 199zM385 1628q0 -59 41 -100t100 -41t100.5 41t41.5 100t-41 100t-101 41q-59 0 -100 -40.5t-41 -100.5zM799 1628q0 -59 41 -100t100 -41t100 41 t41 100t-41 100t-100 41t-100 -40.5t-41 -100.5z" />
<glyph unicode="&#xd8;" d="M68 676q0 -219 73.5 -384t233.5 -245l-72 -201l195 -61l71 203q29 -6 61 -8.5t66 -2.5q141 0 263 50.5t212.5 143.5t141.5 227t51 302q0 256 -86 414t-236 227l66 187l-193 61l-67 -192q-29 4 -56.5 6t-56.5 2q-141 0 -264 -49t-212 -143.5t-140 -229.5t-51 -307z M338 696q0 106 24.5 187.5t67.5 138.5t100.5 90t120.5 43q33 4 60.5 5t56.5 -3l-303 -846q-72 57 -99.5 155.5t-27.5 229.5zM647 219l307 862q72 -53 106 -157.5t34 -239.5q0 -117 -29 -203t-76 -143t-109.5 -88t-131.5 -37q-25 -2 -50.5 -1t-50.5 7z" />
<glyph unicode="&#xd9;" horiz-adv-x="1394" d="M143 479q0 -98 22.5 -189t82 -161t163 -111t267.5 -41q274 0 423.5 137.5t149.5 422.5v845h-264v-862q0 -176 -68.5 -248.5t-222.5 -72.5q-86 0 -141 21.5t-88 61.5t-45 94t-12 120v886h-267v-903zM393 1665l377 -195l92 152l-356 225z" />
<glyph unicode="&#xda;" horiz-adv-x="1394" d="M143 479q0 -98 22.5 -189t82 -161t163 -111t267.5 -41q274 0 423.5 137.5t149.5 422.5v845h-264v-862q0 -176 -68.5 -248.5t-222.5 -72.5q-86 0 -141 21.5t-88 61.5t-45 94t-12 120v886h-267v-903zM528 1622l90 -149l377 194l-108 180z" />
<glyph unicode="&#xdb;" horiz-adv-x="1394" d="M143 479q0 -98 22.5 -189t82 -161t163 -111t267.5 -41q274 0 423.5 137.5t149.5 422.5v845h-264v-862q0 -176 -68.5 -248.5t-222.5 -72.5q-86 0 -141 21.5t-88 61.5t-45 94t-12 120v886h-267v-903zM387 1636l78 -151l227 129l232 -129l84 153l-314 179z" />
<glyph unicode="&#xdc;" horiz-adv-x="1394" d="M143 479q0 -98 22.5 -189t82 -161t163 -111t267.5 -41q274 0 423.5 137.5t149.5 422.5v845h-264v-862q0 -176 -68.5 -248.5t-222.5 -72.5q-86 0 -141 21.5t-88 61.5t-45 94t-12 120v886h-267v-903zM330 1628q0 -59 41 -100t100 -41t100 41t41 100t-41 100t-100 41 t-100 -40.5t-41 -100.5zM743 1628q0 -59 41 -100t101 -41q59 0 100 41t41 100t-41 100t-100 41t-100.5 -40.5t-41.5 -100.5z" />
<glyph unicode="&#xdf;" horiz-adv-x="1243" d="M141 0h262v1024q0 147 59.5 217t162.5 70q72 0 113.5 -31t41.5 -90q0 -66 -36.5 -106t-81 -80.5t-81 -94t-36.5 -143.5q0 -80 26.5 -133t67.5 -90t88 -64.5t88 -53.5t67.5 -55.5t26.5 -74.5t-39 -80t-131 -35q-47 0 -98 11.5t-92 29.5l-10 -215q80 -29 217 -29 q94 0 172 25t134 70t87 108.5t31 141.5t-28 131t-69 92t-88 66.5t-88 54t-68.5 57.5t-27.5 74q0 61 38 96t83 71.5t83 91t38 152.5q0 72 -30 128.5t-85 96.5t-132 60t-171 20q-100 0 -189.5 -27.5t-157 -87t-107.5 -155.5t-40 -231v-1012z" />
<glyph unicode="&#xe0;" horiz-adv-x="1130" d="M78 248q0 -123 75.5 -195.5t215.5 -72.5q115 0 201.5 54t123.5 140l2 -2q-6 -41 -8 -85t-2 -89q100 -4 211 1t209 17v164q-45 4 -93 9.5t-85 11.5v485q0 84 -19.5 149.5t-67.5 111.5t-129 69.5t-204 23.5q-98 0 -192.5 -17t-172.5 -46l23 -219q66 37 148.5 58.5 t152.5 21.5q111 0 155 -41t44 -121v-55q-129 0 -238 -24t-186.5 -71t-120.5 -116.5t-43 -161.5zM264 1346l377 -195l92 152l-356 225zM328 289q0 31 14 59.5t51 52t102.5 37t170.5 13.5v-25q0 -47 -15.5 -91t-44 -78t-68.5 -55.5t-89 -21.5q-57 0 -89 30t-32 79z" />
<glyph unicode="&#xe1;" horiz-adv-x="1130" d="M78 248q0 -123 75.5 -195.5t215.5 -72.5q115 0 201.5 54t123.5 140l2 -2q-6 -41 -8 -85t-2 -89q100 -4 211 1t209 17v164q-45 4 -93 9.5t-85 11.5v485q0 84 -19.5 149.5t-67.5 111.5t-129 69.5t-204 23.5q-98 0 -192.5 -17t-172.5 -46l23 -219q66 37 148.5 58.5 t152.5 21.5q111 0 155 -41t44 -121v-55q-129 0 -238 -24t-186.5 -71t-120.5 -116.5t-43 -161.5zM328 289q0 31 14 59.5t51 52t102.5 37t170.5 13.5v-25q0 -47 -15.5 -91t-44 -78t-68.5 -55.5t-89 -21.5q-57 0 -89 30t-32 79zM362 1303l91 -150l376 195l-108 180z" />
<glyph unicode="&#xe2;" horiz-adv-x="1130" d="M78 248q0 -123 75.5 -195.5t215.5 -72.5q115 0 201.5 54t123.5 140l2 -2q-6 -41 -8 -85t-2 -89q100 -4 211 1t209 17v164q-45 4 -93 9.5t-85 11.5v485q0 84 -19.5 149.5t-67.5 111.5t-129 69.5t-204 23.5q-98 0 -192.5 -17t-172.5 -46l23 -219q66 37 148.5 58.5 t152.5 21.5q111 0 155 -41t44 -121v-55q-129 0 -238 -24t-186.5 -71t-120.5 -116.5t-43 -161.5zM229 1317l78 -152l228 129l231 -129l84 154l-313 178zM328 289q0 31 14 59.5t51 52t102.5 37t170.5 13.5v-25q0 -47 -15.5 -91t-44 -78t-68.5 -55.5t-89 -21.5q-57 0 -89 30 t-32 79z" />
<glyph unicode="&#xe3;" horiz-adv-x="1130" d="M78 248q0 -123 75.5 -195.5t215.5 -72.5q115 0 201.5 54t123.5 140l2 -2q-6 -41 -8 -85t-2 -89q100 -4 211 1t209 17v164q-45 4 -93 9.5t-85 11.5v485q0 84 -19.5 149.5t-67.5 111.5t-129 69.5t-204 23.5q-98 0 -192.5 -17t-172.5 -46l23 -219q66 37 148.5 58.5 t152.5 21.5q111 0 155 -41t44 -121v-55q-129 0 -238 -24t-186.5 -71t-120.5 -116.5t-43 -161.5zM170 1386l51 -174q29 29 65 48.5t74 19.5q47 0 80 -15.5t66 -35t71.5 -34.5t98.5 -15q59 0 117.5 27.5t93.5 58.5l-51 174q-27 -27 -65 -46.5t-81 -19.5q-45 0 -77.5 15.5 t-66.5 35t-72 35t-93 15.5q-59 0 -113.5 -25t-97.5 -64zM328 289q0 31 14 59.5t51 52t102.5 37t170.5 13.5v-25q0 -47 -15.5 -91t-44 -78t-68.5 -55.5t-89 -21.5q-57 0 -89 30t-32 79z" />
<glyph unicode="&#xe4;" horiz-adv-x="1130" d="M78 248q0 -123 75.5 -195.5t215.5 -72.5q115 0 201.5 54t123.5 140l2 -2q-6 -41 -8 -85t-2 -89q100 -4 211 1t209 17v164q-45 4 -93 9.5t-85 11.5v485q0 84 -19.5 149.5t-67.5 111.5t-129 69.5t-204 23.5q-98 0 -192.5 -17t-172.5 -46l23 -219q66 37 148.5 58.5 t152.5 21.5q111 0 155 -41t44 -121v-55q-129 0 -238 -24t-186.5 -71t-120.5 -116.5t-43 -161.5zM184 1327q0 -59 41 -100t101 -41q59 0 100 41t41 100t-41 100t-100 41t-100.5 -41t-41.5 -100zM328 289q0 31 14 59.5t51 52t102.5 37t170.5 13.5v-25q0 -47 -15.5 -91t-44 -78 t-68.5 -55.5t-89 -21.5q-57 0 -89 30t-32 79zM598 1327q0 -59 41 -100t100 -41t100.5 41t41.5 100t-41 100t-101 41q-59 0 -100 -41t-41 -100z" />
<glyph unicode="&#xe5;" horiz-adv-x="1130" d="M78 248q0 -123 75.5 -195.5t215.5 -72.5q115 0 201.5 54t123.5 140l2 -2q-6 -41 -8 -85t-2 -89q100 -4 211 1t209 17v164q-45 4 -93 9.5t-85 11.5v485q0 84 -19.5 149.5t-67.5 111.5t-129 69.5t-204 23.5q-98 0 -192.5 -17t-172.5 -46l23 -219q66 37 148.5 58.5 t152.5 21.5q111 0 155 -41t44 -121v-55q-129 0 -238 -24t-186.5 -71t-120.5 -116.5t-43 -161.5zM272 1366q0 -55 20.5 -100t55.5 -79t82 -52.5t102 -18.5q53 0 100.5 19.5t83.5 53.5t56.5 79t20.5 98t-20.5 99t-55.5 79t-82 51.5t-103 18.5q-53 0 -101 -18.5t-83 -51.5 t-55.5 -79t-20.5 -99zM328 289q0 31 14 59.5t51 52t102.5 37t170.5 13.5v-25q0 -47 -15.5 -91t-44 -78t-68.5 -55.5t-89 -21.5q-57 0 -89 30t-32 79zM424 1366q0 45 31.5 77t76.5 32t76 -32t31 -77t-30.5 -77t-76.5 -32q-45 0 -76.5 32t-31.5 77z" />
<glyph unicode="&#xe6;" horiz-adv-x="1638" d="M78 248q0 -123 73.5 -195.5t210.5 -72.5q74 0 132.5 17t103.5 46t79 65.5t56 75.5l2 2q49 -92 154.5 -149t269.5 -57q96 0 189.5 16t175.5 49l-25 203q-66 -31 -143.5 -47.5t-155.5 -16.5q-281 0 -278 283h630q4 33 6.5 62.5t2.5 56.5q0 94 -26 177t-78 144.5t-133 97 t-191 35.5q-98 0 -175 -34.5t-122 -87.5h-2q-53 70 -140.5 97t-187.5 27q-98 0 -191.5 -18t-171.5 -47l23 -219q66 37 148.5 58.5t152.5 21.5q111 0 155 -42t44 -122v-53q-129 0 -238 -24t-186.5 -71t-120.5 -116.5t-43 -161.5zM328 289q0 31 14 59.5t51 51t102.5 37 t170.5 14.5v-25q0 -47 -15.5 -91t-44 -78t-68.5 -55.5t-89 -21.5q-57 0 -89 30t-32 79zM926 645q10 92 63 147.5t135 55.5q84 0 132 -53.5t44 -149.5h-374z" />
<glyph unicode="&#xe7;" horiz-adv-x="870" d="M70 475q0 -129 31.5 -223t91 -153.5t144.5 -88t191 -28.5q82 0 154 13.5t125 33.5l-21 223q-41 -23 -94 -33t-106 -10q-131 0 -186.5 81t-55.5 212q0 145 62.5 230t187.5 85q49 0 96 -10t88 -27l27 228q-102 29 -209 28q-135 0 -234.5 -43t-164 -118.5t-96 -178 t-31.5 -221.5zM289 -410l123 -100q96 41 150 89t74.5 100.5t11.5 108t-36 108.5h-239q49 -86 30.5 -164t-114.5 -142z" />
<glyph unicode="&#xe8;" horiz-adv-x="1052" d="M70 500q0 -270 130 -395t373 -125q96 0 189.5 16t175.5 49l-25 203q-66 -31 -143.5 -47.5t-153.5 -16.5q-283 0 -280 283h631q4 33 6 62.5t2 56.5q0 94 -25.5 177t-78 144.5t-133.5 97t-191 35.5q-115 0 -204 -41t-149.5 -112.5t-92 -171t-31.5 -215.5zM266 1346 l377 -195l92 152l-356 225zM340 645q10 92 63.5 147.5t135.5 55.5q84 0 132 -53.5t44 -149.5h-375z" />
<glyph unicode="&#xe9;" horiz-adv-x="1052" d="M70 500q0 -270 130 -395t373 -125q96 0 189.5 16t175.5 49l-25 203q-66 -31 -143.5 -47.5t-153.5 -16.5q-283 0 -280 283h631q4 33 6 62.5t2 56.5q0 94 -25.5 177t-78 144.5t-133.5 97t-191 35.5q-115 0 -204 -41t-149.5 -112.5t-92 -171t-31.5 -215.5zM340 645 q10 92 63.5 147.5t135.5 55.5q84 0 132 -53.5t44 -149.5h-375zM375 1303l90 -150l377 195l-109 180z" />
<glyph unicode="&#xea;" horiz-adv-x="1052" d="M70 500q0 -270 130 -395t373 -125q96 0 189.5 16t175.5 49l-25 203q-66 -31 -143.5 -47.5t-153.5 -16.5q-283 0 -280 283h631q4 33 6 62.5t2 56.5q0 94 -25.5 177t-78 144.5t-133.5 97t-191 35.5q-115 0 -204 -41t-149.5 -112.5t-92 -171t-31.5 -215.5zM233 1317l78 -152 l228 129l231 -129l84 154l-313 178zM340 645q10 92 63.5 147.5t135.5 55.5q84 0 132 -53.5t44 -149.5h-375z" />
<glyph unicode="&#xeb;" horiz-adv-x="1052" d="M70 500q0 -270 130 -395t373 -125q96 0 189.5 16t175.5 49l-25 203q-66 -31 -143.5 -47.5t-153.5 -16.5q-283 0 -280 283h631q4 33 6 62.5t2 56.5q0 94 -25.5 177t-78 144.5t-133.5 97t-191 35.5q-115 0 -204 -41t-149.5 -112.5t-92 -171t-31.5 -215.5zM199 1327 q0 -59 41 -100t100 -41t100 41t41 100t-41 100t-100 41t-100 -41t-41 -100zM340 645q10 92 63.5 147.5t135.5 55.5q84 0 132 -53.5t44 -149.5h-375zM612 1327q0 -59 41 -100t101 -41q59 0 100 41t41 100t-41 100t-100 41t-100.5 -41t-41.5 -100z" />
<glyph unicode="&#xec;" horiz-adv-x="610" d="M27 1346l374 -195l93 152l-357 225zM31 838q45 -4 93 -9.5t85 -11.5v-817h260v1020q-115 4 -227.5 -1t-210.5 -18v-163z" />
<glyph unicode="&#xed;" horiz-adv-x="610" d="M31 838q45 -4 93 -9.5t85 -11.5v-817h260v1020q-115 4 -227.5 -1t-210.5 -18v-163zM88 1303l90 -150l377 195l-109 180z" />
<glyph unicode="&#xee;" horiz-adv-x="610" d="M8 1317l78 -152l227 129l232 -129l84 154l-314 178zM31 838q45 -4 93 -9.5t85 -11.5v-817h260v1020q-115 4 -227.5 -1t-210.5 -18v-163z" />
<glyph unicode="&#xef;" horiz-adv-x="610" d="M-43 1327q0 -59 41 -100t100 -41t100.5 41t41.5 100t-41 100t-101 41q-59 0 -100 -41t-41 -100zM31 838q45 -4 93 -9.5t85 -11.5v-817h260v1020q-115 4 -227.5 -1t-210.5 -18v-163zM371 1327q0 -59 41 -100t100 -41t100 41t41 100t-41 100t-100 41t-100 -41t-41 -100z " />
<glyph unicode="&#xf1;" horiz-adv-x="1234" d="M31 838q45 -4 93 -9.5t85 -11.5v-817h260v492q0 68 18.5 127t50 104t75.5 71.5t94 26.5q72 0 98 -45t26 -125v-651h261v715q0 68 -15.5 126t-50.5 103t-93.5 70.5t-144.5 25.5q-125 0 -212 -56t-134 -148l-2 2q8 41 11.5 93t3.5 89q-104 4 -215 -1t-209 -18v-163z M272 1386l52 -174q29 29 64.5 48.5t74.5 19.5q47 0 79.5 -15.5t65.5 -35t72 -34.5t98 -15t117.5 27.5t93.5 58.5l-51 174q-27 -27 -64.5 -46.5t-80.5 -19.5q-45 0 -78 15.5t-67 35t-71.5 35t-93.5 15.5q-59 0 -113.5 -25t-97.5 -64z" />
<glyph unicode="&#xf2;" horiz-adv-x="1132" d="M68 492q0 -135 33.5 -232.5t95 -160t149.5 -91t197 -28.5q115 0 210 40.5t164.5 113.5t107.5 173t38 221q0 262 -129 386t-346 124q-117 0 -212 -41t-164 -113.5t-106.5 -173t-37.5 -218.5zM299 1346l377 -195l92 152l-356 225zM338 518q0 78 19.5 134.5t52 93t74.5 54 t85 17.5q117 0 170.5 -78t53.5 -225q0 -156 -64.5 -233.5t-163.5 -77.5q-227 0 -227 315z" />
<glyph unicode="&#xf3;" horiz-adv-x="1132" d="M68 492q0 -135 33.5 -232.5t95 -160t149.5 -91t197 -28.5q115 0 210 40.5t164.5 113.5t107.5 173t38 221q0 262 -129 386t-346 124q-117 0 -212 -41t-164 -113.5t-106.5 -173t-37.5 -218.5zM338 518q0 78 19.5 134.5t52 93t74.5 54t85 17.5q117 0 170.5 -78t53.5 -225 q0 -156 -64.5 -233.5t-163.5 -77.5q-227 0 -227 315zM403 1303l91 -150l376 195l-108 180z" />
<glyph unicode="&#xf4;" horiz-adv-x="1132" d="M68 492q0 -135 33.5 -232.5t95 -160t149.5 -91t197 -28.5q115 0 210 40.5t164.5 113.5t107.5 173t38 221q0 262 -129 386t-346 124q-117 0 -212 -41t-164 -113.5t-106.5 -173t-37.5 -218.5zM266 1317l78 -152l227 129l232 -129l84 154l-314 178zM338 518q0 78 19.5 134.5 t52 93t74.5 54t85 17.5q117 0 170.5 -78t53.5 -225q0 -156 -64.5 -233.5t-163.5 -77.5q-227 0 -227 315z" />
<glyph unicode="&#xf5;" horiz-adv-x="1132" d="M68 492q0 -135 33.5 -232.5t95 -160t149.5 -91t197 -28.5q115 0 210 40.5t164.5 113.5t107.5 173t38 221q0 262 -129 386t-346 124q-117 0 -212 -41t-164 -113.5t-106.5 -173t-37.5 -218.5zM221 1386l51 -174q29 29 65 48.5t75 19.5q47 0 79.5 -15.5t65.5 -35t72 -34.5 t98 -15t117.5 27.5t93.5 58.5l-51 174q-27 -27 -65 -46.5t-81 -19.5q-45 0 -77.5 15.5t-66.5 35t-72 35t-93 15.5q-59 0 -113.5 -25t-97.5 -64zM338 518q0 78 19.5 134.5t52 93t74.5 54t85 17.5q117 0 170.5 -78t53.5 -225q0 -156 -64.5 -233.5t-163.5 -77.5 q-227 0 -227 315z" />
<glyph unicode="&#xf6;" horiz-adv-x="1132" d="M68 492q0 -135 33.5 -232.5t95 -160t149.5 -91t197 -28.5q115 0 210 40.5t164.5 113.5t107.5 173t38 221q0 262 -129 386t-346 124q-117 0 -212 -41t-164 -113.5t-106.5 -173t-37.5 -218.5zM227 1327q0 -59 41 -100t101 -41q59 0 100 41t41 100t-41 100t-100 41 t-100.5 -41t-41.5 -100zM338 518q0 78 19.5 134.5t52 93t74.5 54t85 17.5q117 0 170.5 -78t53.5 -225q0 -156 -64.5 -233.5t-163.5 -77.5q-227 0 -227 315zM641 1327q0 -59 41 -100t100 -41t100.5 41t41.5 100t-41 100t-101 41q-59 0 -100 -41t-41 -100z" />
<glyph unicode="&#xf7;" horiz-adv-x="1239" d="M98 418h1043v221h-1043v-221zM459 117q0 -66 47 -113t112 -47q66 0 113 47t47 113t-47 112.5t-113 46.5t-112.5 -47t-46.5 -112zM459 938q0 -66 47 -113t112 -47q66 0 113 47t47 113t-47 114t-113 48t-112.5 -48t-46.5 -114z" />
<glyph unicode="&#xf8;" horiz-adv-x="1122" d="M63 498q0 -168 55.5 -286t160.5 -177l-80 -207l151 -47l80 207q25 -4 52.5 -7.5t56.5 -3.5q113 0 207 41t161.5 114t105.5 173t38 221q0 195 -64.5 305.5t-167.5 159.5l72 187l-152 47l-71 -191q-23 4 -46.5 5t-46.5 1q-115 0 -209 -38.5t-161.5 -110.5t-104.5 -171 t-37 -222zM307 512q0 80 18.5 136.5t49.5 95t69.5 58t79.5 25.5q16 2 31 1t31 -3l-209 -544q-35 37 -52.5 98t-17.5 133zM512 199l215 559q41 -37 60.5 -99.5t19.5 -140.5q0 -80 -17.5 -140.5t-47 -100t-69.5 -60t-83 -24.5q-20 -4 -41 -1t-37 7z" />
<glyph unicode="&#xf9;" horiz-adv-x="1286" d="M27 838q45 -4 92 -9.5t84 -11.5v-514q0 -68 15 -126t50 -103t94.5 -71t145.5 -26q125 0 212 56.5t132 148.5l4 -2q-8 -43 -10 -95t-2 -87q102 -4 213 1t209 17v164q-45 4 -93.5 9.5t-85.5 11.5v817h-260v-492q0 -68 -18 -127t-50 -104t-76 -71.5t-93 -26.5 q-72 0 -98.5 45t-26.5 125v653q-106 4 -221 -1t-217 -18v-163zM319 1346l377 -195l92 152l-356 225z" />
<glyph unicode="&#xfa;" horiz-adv-x="1286" d="M27 838q45 -4 92 -9.5t84 -11.5v-514q0 -68 15 -126t50 -103t94.5 -71t145.5 -26q125 0 212 56.5t132 148.5l4 -2q-8 -43 -10 -95t-2 -87q102 -4 213 1t209 17v164q-45 4 -93.5 9.5t-85.5 11.5v817h-260v-492q0 -68 -18 -127t-50 -104t-76 -71.5t-93 -26.5 q-72 0 -98.5 45t-26.5 125v653q-106 4 -221 -1t-217 -18v-163zM483 1303l90 -150l377 195l-108 180z" />
<glyph unicode="&#xfb;" horiz-adv-x="1286" d="M27 838q45 -4 92 -9.5t84 -11.5v-514q0 -68 15 -126t50 -103t94.5 -71t145.5 -26q125 0 212 56.5t132 148.5l4 -2q-8 -43 -10 -95t-2 -87q102 -4 213 1t209 17v164q-45 4 -93.5 9.5t-85.5 11.5v817h-260v-492q0 -68 -18 -127t-50 -104t-76 -71.5t-93 -26.5 q-72 0 -98.5 45t-26.5 125v653q-106 4 -221 -1t-217 -18v-163zM330 1317l78 -152l227 129l231 -129l84 154l-313 178z" />
<glyph unicode="&#xfc;" horiz-adv-x="1286" d="M27 838q45 -4 92 -9.5t84 -11.5v-514q0 -68 15 -126t50 -103t94.5 -71t145.5 -26q125 0 212 56.5t132 148.5l4 -2q-8 -43 -10 -95t-2 -87q102 -4 213 1t209 17v164q-45 4 -93.5 9.5t-85.5 11.5v817h-260v-492q0 -68 -18 -127t-50 -104t-76 -71.5t-93 -26.5 q-72 0 -98.5 45t-26.5 125v653q-106 4 -221 -1t-217 -18v-163zM287 1327q0 -59 41 -100t100 -41t100 41t41 100t-41 100t-100 41t-100 -41t-41 -100zM700 1327q0 -59 41 -100t101 -41q59 0 100 41t41 100t-41 100t-100 41t-100.5 -41t-41.5 -100z" />
<glyph unicode="&#xff;" horiz-adv-x="1028" d="M0 -492q33 -8 71 -12t72 -4q88 0 153.5 20.5t119 67.5t98.5 127t90 199l418 1112h-281l-120 -346q-12 -35 -25.5 -77t-27 -85t-26 -85t-20.5 -77h-2q-16 70 -36.5 142.5t-43.5 138.5l-137 389h-291l375 -1018l-35 -98q-20 -57 -40.5 -94t-45 -58.5t-51.5 -30t-59 -8.5 q-37 0 -71 6.5t-69 16.5zM172 1327q0 -59 41 -100t100 -41t100.5 41t41.5 100t-41 100t-101 41q-59 0 -100 -41t-41 -100zM586 1327q0 -59 41 -100t100 -41t100 41t41 100t-41 100t-100 41t-100 -41t-41 -100z" />
<glyph unicode="&#x152;" horiz-adv-x="1679" d="M70 676q0 -154 36.5 -282t113.5 -219t191.5 -141t272.5 -50q86 0 157.5 8t162.5 8h561v227h-486v375h461v217h-461v340h486v223h-572q-66 0 -126 6.5t-146 6.5q-135 0 -253 -49.5t-207 -142.5t-140 -226t-51 -301zM348 698q0 109 29 194t78 144.5t115.5 91t144.5 31.5 q27 0 54.5 -2t53.5 -6v-920q-23 -4 -51.5 -7t-56.5 -3q-96 0 -166 35t-115 97.5t-65.5 150.5t-20.5 194z" />
<glyph unicode="&#x153;" horiz-adv-x="1759" d="M68 500q0 -256 118.5 -388t350.5 -132q123 0 213 47t143 118q55 -80 149.5 -122.5t237.5 -42.5q94 0 188.5 16t176.5 49l-23 203q-68 -31 -145.5 -47.5t-155.5 -16.5q-281 0 -279 283h631q4 33 6 62.5t2 56.5q0 94 -25.5 177t-77.5 144.5t-133 97t-192 35.5t-192.5 -41 t-136.5 -110q-57 78 -148.5 113.5t-197.5 35.5q-113 0 -207.5 -38.5t-162 -109.5t-104 -170t-36.5 -220zM324 512q0 86 20.5 145.5t54 96.5t74.5 53t84 16q123 0 177 -77.5t54 -231.5q0 -160 -66.5 -238.5t-164.5 -78.5q-127 0 -180 85t-53 230zM1044 645q12 92 65.5 147.5 t135.5 55.5q84 0 132 -53.5t44 -149.5h-377z" />
<glyph unicode="&#x178;" horiz-adv-x="1148" d="M6 1382l432 -895v-487h267v489l440 893h-283l-174 -370q-31 -66 -59.5 -131.5t-50.5 -124.5h-5q-20 53 -42.5 110.5t-51.5 118.5l-182 397h-291zM225 1628q0 -59 41 -100t101 -41q59 0 100 41t41 100t-41 100t-100 41t-100.5 -40.5t-41.5 -100.5zM639 1628q0 -59 41 -100 t100 -41t100.5 41t41.5 100t-41 100t-101 41q-59 0 -100 -40.5t-41 -100.5z" />
<glyph unicode="&#x2c6;" horiz-adv-x="872" d="M127 1317l78 -152l227 129l232 -129l84 154l-314 178z" />
<glyph unicode="&#x2dc;" horiz-adv-x="956" d="M135 1386l51 -174q29 29 65 48.5t75 19.5q47 0 79.5 -15.5t65.5 -35t72 -34.5t98 -15t117.5 27.5t93.5 58.5l-51 174q-27 -27 -65 -46.5t-81 -19.5q-45 0 -77.5 15.5t-66.5 35t-72 35t-93 15.5q-59 0 -113.5 -25t-97.5 -64z" />
<glyph unicode="&#x2000;" horiz-adv-x="923" />
<glyph unicode="&#x2001;" horiz-adv-x="1847" />
<glyph unicode="&#x2002;" horiz-adv-x="923" />
<glyph unicode="&#x2003;" horiz-adv-x="1847" />
<glyph unicode="&#x2004;" horiz-adv-x="615" />
<glyph unicode="&#x2005;" horiz-adv-x="461" />
<glyph unicode="&#x2006;" horiz-adv-x="307" />
<glyph unicode="&#x2007;" horiz-adv-x="307" />
<glyph unicode="&#x2008;" horiz-adv-x="230" />
<glyph unicode="&#x2009;" horiz-adv-x="369" />
<glyph unicode="&#x200a;" horiz-adv-x="102" />
<glyph unicode="&#x2010;" horiz-adv-x="684" d="M90 416h504v209h-504v-209z" />
<glyph unicode="&#x2011;" horiz-adv-x="684" d="M90 416h504v209h-504v-209z" />
<glyph unicode="&#x2012;" horiz-adv-x="684" d="M90 416h504v209h-504v-209z" />
<glyph unicode="&#x2013;" horiz-adv-x="1024" d="M0 477h1024v230h-1024v-230z" />
<glyph unicode="&#x2014;" horiz-adv-x="2048" d="M0 477h2048v230h-2048v-230z" />
<glyph unicode="&#x2018;" horiz-adv-x="546" d="M99 1093.5q-1 -92.5 47.5 -148.5t119.5 -56q53 0 90 25.5t53.5 64.5t11.5 81t-34 77q-47 57 -33.5 129.5t117.5 185.5l-106 96q-143 -125 -204 -243.5t-62 -211z" />
<glyph unicode="&#x2019;" horiz-adv-x="546" d="M74 967l106 -97q143 125 203.5 244t60.5 211t-47 148.5t-118 56.5q-53 0 -90 -25.5t-53.5 -64.5t-12.5 -82t33 -76q49 -57 35.5 -130t-117.5 -185z" />
<glyph unicode="&#x201a;" horiz-adv-x="546" d="M74 -258l106 -96q143 125 203.5 243.5t60.5 210.5t-47 148.5t-118 56.5q-53 0 -90 -25.5t-53.5 -64.5t-12.5 -82t33 -78q49 -57 35.5 -128.5t-117.5 -184.5z" />
<glyph unicode="&#x201c;" horiz-adv-x="993" d="M99 1093.5q-1 -92.5 47.5 -148.5t119.5 -56q53 0 90 25.5t53.5 64.5t11.5 81t-34 77q-47 57 -33.5 129.5t117.5 185.5l-106 96q-143 -125 -204 -243.5t-62 -211zM547 1094q0 -92 47 -148.5t121 -56.5q53 0 89 25.5t52 64.5t12 81t-32 77q-47 57 -33.5 129.5t117.5 185.5 l-109 96q-143 -125 -203.5 -243.5t-60.5 -210.5z" />
<glyph unicode="&#x201d;" horiz-adv-x="993" d="M74 967l106 -97q143 125 203.5 244t60.5 211t-47 148.5t-118 56.5q-53 0 -90 -25.5t-53.5 -64.5t-12.5 -82t33 -76q49 -57 35.5 -130t-117.5 -185zM520 967l109 -97q143 125 203.5 244t60.5 211t-47 148.5t-121 56.5q-53 0 -89 -25.5t-52.5 -64.5t-12.5 -82t33 -76 q47 -57 34 -130t-118 -185z" />
<glyph unicode="&#x201e;" horiz-adv-x="993" d="M74 -258l106 -96q143 125 203.5 243.5t60.5 210.5t-47 148.5t-118 56.5q-53 0 -90 -25.5t-53.5 -64.5t-12.5 -82t33 -78q49 -57 35.5 -128.5t-117.5 -184.5zM520 -258l109 -96q143 125 203.5 243.5t60.5 210.5t-47 148.5t-121 56.5q-53 0 -89 -25.5t-52.5 -64.5 t-12.5 -82t33 -78q47 -57 34 -128.5t-118 -184.5z" />
<glyph unicode="&#x2022;" horiz-adv-x="878" d="M129 604q0 -63 23.5 -118.5t64.5 -96.5t96.5 -64.5t118.5 -23.5q61 0 116.5 23.5t97.5 64.5t65.5 96.5t23.5 118.5q0 61 -23.5 116.5t-65.5 97.5t-97.5 65.5t-116.5 23.5q-63 0 -118.5 -23.5t-96.5 -65.5t-64.5 -97t-23.5 -117z" />
<glyph unicode="&#x2026;" horiz-adv-x="1527" d="M96 143q0 -70 49.5 -119t118.5 -49q70 0 118 49.5t48 118.5q0 70 -48 119t-118 49t-119 -49t-49 -119zM592 143q0 -70 48 -119t118 -49t119 49.5t49 118.5q0 70 -49 119t-119 49t-118 -49t-48 -119zM1085 143q0 -70 49.5 -119t118.5 -49q68 0 117 49.5t49 118.5 q0 70 -49 119t-117 49q-70 0 -119 -49t-49 -119z" />
<glyph unicode="&#x202f;" horiz-adv-x="369" />
<glyph unicode="&#x2039;" horiz-adv-x="638" d="M84 508l229 -393l209 98l-188 295l186 301l-201 98z" />
<glyph unicode="&#x203a;" horiz-adv-x="638" d="M117 807l188 -295l-186 -301l200 -96l238 397l-231 395z" />
<glyph unicode="&#x205f;" horiz-adv-x="461" />
<glyph unicode="&#x20ac;" horiz-adv-x="1126" d="M25 451h165q35 -242 167 -358t372 -116q180 1 330 58l-45 205q-47 -18 -110.5 -30.5t-123.5 -12.5q-131 0 -203.5 62.5t-101.5 191.5h338v157h-356q0 20 -1 41t-1 43q0 18 1 37t1 35h356v156h-336q59 268 301 268q59 0 119.5 -10.5t101.5 -24.5l45 221 q-51 14 -120.5 22.5t-135.5 8.5q-238 0 -385 -122t-198 -363h-180v-156h157q-2 -29 -3 -57.5t-1 -59.5v-39h-153v-157z" />
<glyph unicode="&#x2122;" horiz-adv-x="1411" d="M59 1225h140v-418h186v418h133v157h-459v-157zM535 807h176l39 270l4 74l16 -82l68 -262h174l67 256l19 88l10 -96l37 -248h194l-96 575h-223l-70 -256l-14 -79l-16 83l-70 252h-223z" />
<glyph unicode="&#xe000;" horiz-adv-x="1013" d="M0 0v1014h1014v-1014h-1014z" />
<glyph unicode="&#xfb01;" horiz-adv-x="1218" d="M16 815h179v-815h260v815h362v-815h260v1018h-622v53q0 111 60 169t202 58q59 0 125.5 -11t124.5 -30l45 220q-78 16 -153 26t-163 10q-260 0 -380.5 -115.5t-120.5 -342.5v-37h-179v-203z" />
<glyph unicode="&#xfb02;" horiz-adv-x="1218" d="M16 815h179v-815h260v815h223v203h-223v86q0 102 54 149t165 47q70 0 143 -12v-1288h260v1479q-104 16 -203.5 25t-177.5 9q-135 0 -230 -28.5t-155.5 -80.5t-88 -126t-27.5 -162v-98h-179v-203z" />
</font>
</defs>
</svg>
