<?xml version="1.0" standalone="no"?>
<!DOCTYPE svg PUBLIC "-//W3C//DTD SVG 1.1//EN" "http://www.w3.org/Graphics/SVG/1.1/DTD/svg11.dtd" >
<svg xmlns="http://www.w3.org/2000/svg">
<metadata></metadata>
<defs>
<font id="themixextraboldplain" horiz-adv-x="1062" >
<font-face units-per-em="2048" ascent="1638" descent="-410" />
<missing-glyph horiz-adv-x="446" />
<glyph horiz-adv-x="2048" />
<glyph horiz-adv-x="2048" />
<glyph unicode="&#xd;" horiz-adv-x="446" />
<glyph unicode=" "  horiz-adv-x="446" />
<glyph unicode="&#x09;" horiz-adv-x="446" />
<glyph unicode="&#xa0;" horiz-adv-x="446" />
<glyph unicode="!" horiz-adv-x="626" d="M127 152q0 76 53 127t131 51t131.5 -51.5t53.5 -126.5q0 -74 -53.5 -125.5t-131.5 -51.5t-131 51.5t-53 125.5zM131 1481h367l-45 -1069h-273z" />
<glyph unicode="&#x22;" horiz-adv-x="880" d="M78 1546h309l-37 -553h-233zM494 1546h309l-37 -553h-234z" />
<glyph unicode="#" horiz-adv-x="1439" d="M51 342v229h273l28 260h-241v232h266l31 319h272l-33 -319h219l33 319h272l-32 -319h250v-232h-275l-29 -260h242v-229h-264l-37 -342h-272l37 342h-220l-36 -342h-271l35 342h-248zM596 571h217l29 260h-219z" />
<glyph unicode="$" horiz-adv-x="1017" d="M80 893q0 137 87 239.5t230 135.5v198h219v-182q117 -4 207 -24l-22 -263q-119 33 -226 33q-170 0 -169 -108q0 -68 137 -123q201 -80 256 -121q137 -105 137 -289q0 -141 -91 -249.5t-245 -147.5v-240h-221v223q-123 2 -242 25l21 279q121 -41 254 -41q193 0 192 122 q0 74 -135 129q-205 80 -254 117q-135 100 -135 287z" />
<glyph unicode="%" horiz-adv-x="1685" d="M66 1063q0 168 108 274q100 98 248 99q154 0 246 -82q100 -90 100 -264q0 -170 -111 -279q-102 -100 -251 -100q-158 0 -249 92t-91 260zM221 104l1008 1336l225 -162l-1005 -1335zM324 1073q0 -150 90 -149q98 -1 98 151q0 147 -94 148q-94 0 -94 -150zM913 299 q0 168 109 274q100 98 248 99q156 0 246 -82q100 -90 100 -264q0 -170 -111 -279q-102 -100 -252 -100q-158 0 -249 92t-91 260zM1171 309q0 -150 93 -149q96 -1 96 151q0 147 -92 148q-96 0 -97 -150z" />
<glyph unicode="&#x26;" horiz-adv-x="1648" d="M86 387q0 219 233 412q-174 195 -174 360q0 152 113 252q121 109 324 109q186 0 287.5 -86t101.5 -234q0 -203 -232 -393q164 -145 363 -295l2 -2q70 100 76 223q-63 12 -148 21v184q240 25 463 16q4 -41 4 -80q0 -295 -170 -524q80 -55 238 -166l-207 -237 q-131 88 -262 188q-215 -162 -529 -162q-238 0 -366 125q-117 113 -117 289zM410 424q0 -74 55 -125q61 -57 153 -57q103 -1 242 67q-211 168 -350 301q-100 -94 -100 -186zM455 1176q0 -76 96 -193q111 101 111 197q0 104 -103 104q-45 0 -74.5 -30.5t-29.5 -77.5z" />
<glyph unicode="'" horiz-adv-x="464" d="M78 1546h309l-37 -553h-233z" />
<glyph unicode="(" horiz-adv-x="630" d="M82 584q0 532 276 985h293q-260 -436 -260 -975q0 -545 266 -989h-301q-274 446 -274 979z" />
<glyph unicode=")" horiz-adv-x="630" d="M-23 -395q264 436 265 983q0 539 -262 981h299q270 -449 270 -979q0 -539 -275 -985h-297z" />
<glyph unicode="*" horiz-adv-x="800" d="M53 1083l207 74l-207 76l109 186l168 -141l-41 217h219l-39 -217l168 141l108 -186l-206 -76l206 -74l-110 -188l-166 141l39 -215h-219l39 215l-168 -139z" />
<glyph unicode="+" horiz-adv-x="1163" d="M45 397v262h387v394h297v-394h387v-262h-387v-397h-297v397h-387z" />
<glyph unicode="," horiz-adv-x="567" d="M59 -266q125 137 125 221q0 53 -45 106q-41 47 -41 113q0 72 50.5 125t134.5 53t139 -64.5t55 -168.5q0 -252 -291 -498z" />
<glyph unicode="-" horiz-adv-x="690" d="M86 399v250h516v-250h-516z" />
<glyph unicode="." horiz-adv-x="567" d="M90 166q0 80 57.5 137t135.5 57q80 0 137 -57t57 -137q0 -78 -57.5 -135.5t-136.5 -57.5q-78 0 -135.5 57.5t-57.5 135.5z" />
<glyph unicode="/" horiz-adv-x="876" d="M25 0l528 1382h311l-526 -1382h-313z" />
<glyph unicode="0" horiz-adv-x="1239" d="M72 510q0 258 170 416q160 150 391 149q283 0 422 -174q112 -141 112 -366q0 -256 -170 -414q-160 -147 -397 -148q-233 0 -371 119q-158 137 -157 418zM383 530q0 -283 238 -282q100 0 167.5 75.5t67.5 208.5q0 127 -60.5 202t-172.5 75q-102 0 -168 -72 q-72 -78 -72 -207z" />
<glyph unicode="1" horiz-adv-x="706" d="M18 934l322 119h238v-1053h-318v756l-194 -80z" />
<glyph unicode="2" horiz-adv-x="985" d="M80 0v254l158 123q178 139 221 182q66 66 65 125q0 121 -153 121q-123 0 -234 -70l-45 264q174 74 354 74q205 0 315.5 -88t110.5 -242q0 -205 -256 -393l-108 -80v-4q119 8 399 8v-274h-827z" />
<glyph unicode="3" horiz-adv-x="933" d="M57 -348l27 268q92 -31 192 -31q119 0 184.5 49.5t65.5 133.5q0 168 -274 168q-57 0 -125 -9v250q379 -2 379 189q0 135 -176 135q-121 0 -224 -57l-30 258q150 59 319 59q213 0 330 -98q109 -90 109 -236q0 -211 -211 -311v-2q117 -29 179 -115t62 -203 q0 -203 -151 -333q-164 -143 -443 -144q-115 0 -213 29z" />
<glyph unicode="4" horiz-adv-x="1148" d="M35 252l495 807h392v-778h196v-281h-196v-365h-308v365h-530zM334 276q68 5 287 5v477h-3z" />
<glyph unicode="5" horiz-adv-x="944" d="M72 -362l28 276q76 -14 158 -14q139 0 213 57q70 51 70 139q0 188 -301 189q-76 0 -127 -9v777h721v-308l-428 5v-213q215 0 340.5 -108t125.5 -292q0 -225 -178 -369.5t-450 -144.5q-82 0 -172 15z" />
<glyph unicode="6" horiz-adv-x="1189" d="M86 565q0 403 208 636t564 233q55 0 133 -4v-277q-98 12 -151 12q-311 0 -404 -284q-4 -16 -16 -56l2 -2q94 94 272 95q199 0 314.5 -119t115.5 -322q0 -221 -150.5 -362.5t-389.5 -141.5q-227 0 -361 150q-137 158 -137 442zM434 463q0 -98 45 -156q47 -63 133 -63 q88 0 135.5 56t47.5 146q0 203 -177 203q-86 0 -135 -54t-49 -132z" />
<glyph unicode="7" horiz-adv-x="937" d="M41 745v308h856v-262q-231 -547 -348 -1156h-348q135 625 342 1117q-252 -6 -502 -7z" />
<glyph unicode="8" horiz-adv-x="1146" d="M72 354q0 201 231 355l-2 2q-215 127 -215 336q0 182 139.5 292.5t354.5 110.5q217 0 344 -95t127 -259q0 -190 -220 -342q244 -142 244 -359q0 -199 -155 -313q-143 -109 -371 -109q-221 0 -349 103.5t-128 277.5zM401 387q0 -68 47.5 -108.5t124.5 -40.5q76 0 123 39 t47 102q0 111 -190 205h-2q-150 -94 -150 -197zM414 1061q0 -90 170 -184h2q143 96 143 190q0 53 -41 90t-117 37q-74 0 -115.5 -37t-41.5 -96z" />
<glyph unicode="9" horiz-adv-x="1189" d="M63 557q0 225 148.5 368.5t380.5 143.5q233 0 366 -143q144 -156 144 -457q0 -391 -191 -610q-203 -236 -598 -236q-72 0 -143 15v282q70 -25 154 -24q324 0 403 258q6 23 16 65h-2q-94 -94 -262 -94q-190 0 -303 118.5t-113 313.5zM391 602q0 -205 178 -205 q84 0 132.5 56.5t48.5 142.5q0 90 -45.5 146.5t-131.5 56.5q-82 0 -132 -56.5t-50 -140.5z" />
<glyph unicode=":" horiz-adv-x="585" d="M100 166q0 80 56.5 137t136.5 57t137 -57t57 -137q0 -78 -57 -135.5t-137 -57.5t-136.5 57.5t-56.5 135.5zM100 733q0 80 56.5 137.5t136.5 57.5t137 -57.5t57 -137.5t-57 -137t-137 -57t-136.5 57t-56.5 137z" />
<glyph unicode=";" horiz-adv-x="585" d="M70 -266q125 137 125 221q0 53 -45 106q-41 47 -41 113q0 72 50 125t134 53t139 -64.5t55 -168.5q0 -252 -290 -498zM100 733q0 80 56.5 137.5t136.5 57.5t137 -57.5t57 -137.5t-57 -137t-137 -57t-136.5 57t-56.5 137z" />
<glyph unicode="&#x3c;" horiz-adv-x="1038" d="M82 510l655 620l205 -206l-457 -412l459 -410l-205 -211z" />
<glyph unicode="=" horiz-adv-x="1150" d="M117 182v250h917v-250h-917zM117 600v250h917v-250h-917z" />
<glyph unicode="&#x3e;" horiz-adv-x="1038" d="M96 922l205 211l657 -619l-655 -620l-205 206l457 412z" />
<glyph unicode="?" horiz-adv-x="894" d="M86 1206l39 285q344 -10 528 -145q164 -119 164 -297q0 -129 -82 -232q-78 -76 -153 -151q-84 -84 -84 -172q0 -37 14 -82h-305q-29 76 -29 143q0 106 78 197q6 8 143 133q76 72 76 131q0 86 -103.5 137t-285.5 53zM182 152q0 76 53.5 127t131.5 51t131 -51t53 -127 q0 -74 -53.5 -125.5t-130.5 -51.5q-78 0 -131.5 51.5t-53.5 125.5z" />
<glyph unicode="@" horiz-adv-x="1632" d="M70 608q0 354 237 580q231 223 580 223q303 0 487 -168q174 -159 174 -407q0 -246 -129 -377q-121 -125 -332 -125q-90 0 -140 43t-50 112h-8q-86 -156 -248 -155q-195 0 -195 266q0 207 109 332q117 137 336 137q129 0 229 -41l-59 -326q-8 -49 -8 -79q0 -78 65 -78 q170 0 170 276q0 158 -94 252q-111 111 -322 111q-227 0 -381.5 -153.5t-154.5 -395.5q0 -444 483 -445q174 0 334 56v-223q-131 -59 -371 -60q-346 0 -532 176q-180 170 -180 469zM664 639q0 -96 45 -96q109 0 161 274l13 64q-23 10 -62 10q-70 0 -114 -86 q-43 -78 -43 -166z" />
<glyph unicode="A" horiz-adv-x="1296" d="M-8 0l467 1382h362l486 -1382h-351l-86 256h-477l-84 -256h-317zM471 508h320l-97 276q-47 135 -63 230h-4q-25 -125 -66 -246z" />
<glyph unicode="B" horiz-adv-x="1200" d="M123 0v1380q211 10 504 11q229 0 354 -88.5t125 -260.5q0 -96 -55.5 -177t-145.5 -122v-6q102 -27 162.5 -113t60.5 -192q0 -184 -131 -301q-152 -135 -438 -135q-27 0 -174 2t-262 2zM442 262q41 -6 123 -6q221 0 221 172q0 162 -237 162q-82 0 -107 -2v-326zM442 827 q27 -2 95 -2q231 0 231 168q0 141 -193 142q-55 0 -133 -5v-303z" />
<glyph unicode="C" horiz-adv-x="1136" d="M68 641q0 344 178 545q186 207 522 207q150 0 283 -35l-37 -289q-127 37 -252 37q-164 0 -254 -110.5t-90 -301.5q0 -422 360 -422q137 0 242 50l37 -285q-160 -55 -342 -55q-350 0 -514 213q-133 168 -133 446z" />
<glyph unicode="D" horiz-adv-x="1351" d="M123 2v1376q217 12 471 13q692 0 692 -672q0 -348 -207 -543q-203 -186 -547 -186q-156 0 -409 12zM442 272q53 -8 119 -8q172 0 275 105q108 112 108 325q0 209 -78 312q-87 116 -290 116h-3q-96 0 -131 -4v-846z" />
<glyph unicode="E" horiz-adv-x="997" d="M123 0v1382h778v-268h-459v-274h435v-260h-435v-306h459v-274h-778z" />
<glyph unicode="F" horiz-adv-x="948" d="M123 0v1382h762v-272h-443v-295h418v-262h-418v-553h-319z" />
<glyph unicode="G" horiz-adv-x="1372" d="M66 657q0 334 214 540t578 206q198 -1 397 -60l-49 -294q-174 69 -361 69h-5q-197 0 -313.5 -116.5t-116.5 -319.5q0 -195 101 -305.5t292 -110.5q76 0 131 19v452h319v-669q-221 -90 -485 -91q-334 0 -518 181.5t-184 498.5z" />
<glyph unicode="H" horiz-adv-x="1390" d="M123 0v1382h319v-530h506v530h320v-1382h-320v575h-506v-575h-319z" />
<glyph unicode="I" horiz-adv-x="565" d="M123 0v1382h319v-1382h-319z" />
<glyph unicode="J" horiz-adv-x="694" d="M0 -4v270q51 -18 117 -18q139 0 139 166v968h317v-979q0 -423 -389 -423h-2q-100 0 -182 16z" />
<glyph unicode="K" horiz-adv-x="1239" d="M123 0v1382h319v-610l379 610h387l-456 -665l479 -717h-414l-375 649v-649h-319z" />
<glyph unicode="L" horiz-adv-x="880" d="M123 0v1382h319v-1099h418v-283h-737z" />
<glyph unicode="M" horiz-adv-x="1794" d="M41 0l221 1382h367l192 -606q41 -131 74 -301h4q27 147 78 303l197 604h360l221 -1382h-336l-88 569q-27 172 -41 322h-4q-37 -180 -80 -326l-170 -565h-307l-164 516q-63 203 -90 375h-2q-12 -123 -41 -350l-70 -541h-321z" />
<glyph unicode="N" horiz-adv-x="1419" d="M123 0v1382h409l304 -546q66 -119 168 -340q-14 166 -15 432v454h307v-1382h-407l-326 596q-78 141 -143 303q10 -170 10 -373v-526h-307z" />
<glyph unicode="O" horiz-adv-x="1437" d="M57 674q0 330 203 536q193 199 483 199q289 0 455 -166q182 -182 182 -530q0 -334 -198 -541q-193 -199 -488 -199q-315 0 -479 189q-158 180 -158 512zM395 700q0 -434 318 -434q131 0 221 96q108 115 108 330q0 426 -323 426q-135 0 -223 -100q-100 -113 -101 -318z " />
<glyph unicode="P" horiz-adv-x="1097" d="M123 0v1382q199 10 393 11q264 0 404.5 -116t140.5 -329q0 -211 -139 -346q-152 -145 -406 -145q-45 0 -74 2v-459h-319zM442 725q43 -4 56 -4q102 2 167.5 58.5t65.5 154.5q0 199 -221 199q-45 0 -68 -3v-405z" />
<glyph unicode="Q" horiz-adv-x="1437" d="M57 674q0 330 203 536q193 199 483 199q289 0 455 -166q182 -182 182 -530q0 -334 -198 -541q-193 -199 -488 -199q-315 0 -479 189q-158 180 -158 512zM395 700q0 -434 318 -434q131 0 221 96q108 115 108 330q0 426 -323 426q-135 0 -223 -100q-100 -113 -101 -318z M594 -115q74 8 141 9q113 0 279 -34t266 -34q74 0 154 12v-278q-98 -16 -187 -17q-111 0 -277.5 35t-262.5 35q-55 0 -113 -6v278z" />
<glyph unicode="R" horiz-adv-x="1177" d="M123 0v1382q145 10 432 11q522 0 522 -410q0 -139 -83 -243.5t-222 -139.5q37 -51 107 -156l292 -444h-389l-327 541h-13v-541h-319zM442 772q33 -4 80 -4q102 0 161.5 50t59.5 138q0 174 -213 174q-51 0 -88 -4v-354z" />
<glyph unicode="S" horiz-adv-x="1028" d="M68 975q0 197 146 314.5t402 117.5q123 0 252 -25l-18 -276q-127 37 -246 37q-194 0 -194 -134q0 -85 143 -147q223 -98 264 -129q144 -105 144 -291q0 -205 -154 -336t-414 -131q-150 0 -282 31l16 295q139 -51 291 -51q200 0 200 146q0 93 -143 153q-225 94 -264 123 q-143 104 -143 303z" />
<glyph unicode="T" horiz-adv-x="1038" d="M29 1110v272h981v-272h-332v-1110h-318v1110h-331z" />
<glyph unicode="U" horiz-adv-x="1378" d="M123 487v895h319v-876q0 -131 52 -193q56 -71 192 -71h4q135 0 192.5 64.5t57.5 217.5v858h315v-839q0 -569 -585 -570q-547 0 -547 514z" />
<glyph unicode="V" horiz-adv-x="1300" d="M-4 1382h344l244 -755q47 -147 75 -258h3q18 78 75 276l242 737h326l-467 -1382h-373z" />
<glyph unicode="W" horiz-adv-x="1947" d="M37 1382h338l162 -673q33 -133 45 -289h2q27 180 53 280l180 682h330l180 -669q33 -123 55 -285h2q23 170 52 291l155 663h320l-346 -1382h-387l-164 651q-31 121 -51 316h-2q-16 -164 -52 -305l-166 -662h-364z" />
<glyph unicode="X" horiz-adv-x="1327" d="M12 0l432 705l-407 677h369l251 -448l248 448h363l-400 -680l447 -702h-402l-262 467l-262 -467h-377z" />
<glyph unicode="Y" horiz-adv-x="1183" d="M-4 1382h348l158 -352q55 -125 88 -221h4q25 74 106 250l150 323h336l-438 -899v-483h-320v481z" />
<glyph unicode="Z" horiz-adv-x="1097" d="M90 0v250l445 743q27 47 73 107q-74 -4 -217 -4h-287v286h895v-260l-469 -753q-16 -25 -53 -78q27 4 268 4h263v-295h-918z" />
<glyph unicode="[" horiz-adv-x="677" d="M127 -426v2025h481v-249h-188v-1524h188v-252h-481z" />
<glyph unicode="\" horiz-adv-x="854" d="M8 1382h299l543 -1382h-301z" />
<glyph unicode="]" horiz-adv-x="677" d="M72 -174h186v1524h-186v249h481v-2025h-481v252z" />
<glyph unicode="^" horiz-adv-x="1095" d="M86 788l334 594h235l349 -589l-222 -111l-250 481l-239 -481z" />
<glyph unicode="_" horiz-adv-x="1024" d="M0 -264h1024v-252h-1024v252z" />
<glyph unicode="`" horiz-adv-x="772" d="M154 1325l125 217l399 -225l-103 -182z" />
<glyph unicode="a" horiz-adv-x="1146" d="M66 256q0 186 165 287q154 94 408 94v39q0 125 -182 125q-160 0 -297 -74l-25 258q188 59 369 59q252 0 356 -94q92 -84 92 -270v-442q84 -14 178 -21v-201q-186 -20 -353 -20q-56 0 -109 2q0 104 8 156h-2q-37 -80 -121 -128.5t-191 -48.5q-143 0 -219.5 76t-76.5 203z M360 303q0 -88 103 -88q76 0 126 58.5t50 136.5v28q-279 0 -279 -135z" />
<glyph unicode="b" horiz-adv-x="1150" d="M-51 1278v201q189 20 376 20q58 0 115 -2v-403q0 -117 -16 -203l2 -2q79 151 286 151h3q180 0 276 -126t96 -351q0 -260 -143 -418q-154 -168 -420 -168q-209 0 -397 52v1228q-84 14 -178 21zM440 240q41 -12 107 -13q211 0 211 305q0 248 -140 248q-80 0 -129 -79.5 t-49 -204.5v-256z" />
<glyph unicode="c" horiz-adv-x="856" d="M61 477q0 246 129 397q141 166 408 166q94 0 197 -26l-33 -271q-90 29 -160 29q-215 0 -215 -270q0 -252 211 -252q98 0 172 37l25 -264q-113 -43 -267 -43q-467 0 -467 497z" />
<glyph unicode="d" horiz-adv-x="1212" d="M61 453q0 258 144 417q150 168 403 168q53 0 103 -6v225q-84 14 -179 21v201q183 20 367 21q61 0 123 -3v-1259q84 -14 178 -21v-201q-186 -20 -355 -20q-56 0 -110 2q0 84 10 147h-4q-96 -170 -309 -170q-180 0 -275.5 127t-95.5 351zM391 485q0 -249 140 -249h1 q78 0 128.5 82.5t50.5 209.5v250q-51 12 -107 13q-213 0 -213 -306z" />
<glyph unicode="e" d="M61 498q0 242 127 389q130 155 360 155h3q221 0 336 -137q106 -125 106 -336q0 -55 -10 -137h-606q4 -213 252 -213q160 0 299 64l28 -236q-170 -70 -376 -70q-518 0 -519 521zM379 639h307v13q0 163 -143 163q-68 0 -113 -49t-51 -127z" />
<glyph unicode="f" horiz-adv-x="731" d="M18 778v240h156v88q0 207 99.5 307t318.5 100q92 0 164 -16l-21 -254q-55 18 -112 19q-137 0 -138 -154v-90h209v-240h-209v-778h-311v778h-156z" />
<glyph unicode="g" horiz-adv-x="1136" d="M61 453q0 260 144 419q154 168 424 168q188 0 393 -32v-1012q0 -498 -584 -498q-178 0 -319 41l24 285q145 -61 308 -62q264 0 264 215v37q0 76 10 127h-4q-81 -161 -279 -161h-2q-184 0 -281.5 121.5t-97.5 351.5zM391 485q0 -245 138 -245h1q80 0 130.5 82t50.5 213 v243q-61 12 -107 13q-213 0 -213 -306z" />
<glyph unicode="h" horiz-adv-x="1169" d="M-51 1278v201q186 20 369 20q61 0 122 -2v-410q0 -127 -18 -208h2q99 161 318 161h3q303 0 304 -321v-719h-314v647q0 131 -94 131q-82 0 -141.5 -86t-59.5 -200v-492h-313v1257q-84 14 -178 21z" />
<glyph unicode="i" horiz-adv-x="628" d="M16 801v200q191 21 380 21q56 0 112 -2v-1020h-313v780q-84 14 -179 21zM162 1309q0 78 55 131t135 53q78 0 134.5 -54t56.5 -130t-56.5 -130.5t-134.5 -54.5q-80 0 -135 53.5t-55 131.5z" />
<glyph unicode="j" horiz-adv-x="630" d="M-63 -479l18 264q57 -23 117 -23q70 0 97.5 35t27.5 117v866q-84 14 -179 21v200q191 21 380 21q56 0 112 -2v-1071q0 -449 -426 -449q-72 0 -147 21zM162 1309q0 76 56 130t134 54t134.5 -54t56.5 -130t-56.5 -130.5t-134.5 -54.5t-134 54.5t-56 130.5z" />
<glyph unicode="k" horiz-adv-x="1116" d="M-51 1278v201q186 20 369 20q61 0 122 -2v-889l256 410h383l-336 -467l361 -551h-389l-275 489v-489h-313v1257q-84 14 -178 21z" />
<glyph unicode="l" horiz-adv-x="561" d="M-51 1278v201q189 20 376 20q58 0 115 -2v-1497h-313v1257q-84 14 -178 21z" />
<glyph unicode="m" horiz-adv-x="1830" d="M16 801v200q193 21 368 21q52 0 103 -2q0 -98 -12 -164h2q104 184 328 184q219 0 278 -184q94 184 320 184q307 0 307 -342v-698h-311v639q0 139 -92 139q-76 0 -138.5 -84t-62.5 -205v-489h-307v639q0 139 -92 139q-76 0 -137.5 -85t-61.5 -204v-489h-313v780 q-84 14 -179 21z" />
<glyph unicode="n" horiz-adv-x="1236" d="M16 801v200q193 21 367 21q52 0 102 -2q0 -102 -12 -162h4q106 182 336 182q303 0 303 -321v-719h-313v647q0 131 -94 131q-80 0 -140.5 -86t-60.5 -198v-494h-313v780q-84 14 -179 21z" />
<glyph unicode="o" horiz-adv-x="1142" d="M57 485q0 248 151.5 401.5t387.5 153.5t361.5 -130t125.5 -380q0 -246 -151.5 -399.5t-384.5 -153.5q-489 0 -490 508zM381 520q0 -272 188 -272q86 0 138.5 69.5t52.5 194.5q0 262 -185 262q-82 0 -133 -59q-61 -70 -61 -195z" />
<glyph unicode="p" horiz-adv-x="1218" d="M16 801v200q191 21 364 21q51 0 101 -2q0 -96 -8 -148h4q90 168 307 168q180 0 275.5 -124.5t95.5 -350.5q0 -270 -133 -422q-140 -159 -407 -159h-3q-63 0 -104 8v-477h-313v1265q-84 14 -179 21zM508 240q47 -12 106 -13q213 0 213 305q0 250 -141 250q-80 0 -129 -82 t-49 -211v-249z" />
<glyph unicode="q" horiz-adv-x="1144" d="M63 451q0 260 144 419q152 170 424 170q188 0 393 -32v-1258q84 -14 178 -20v-201q-171 -18 -356 -18q-67 0 -135 2v417q0 113 14 207l-4 2q-82 -164 -279 -164q-379 0 -379 476zM391 485q0 -249 138 -249h1q80 0 130.5 83t50.5 216v245q-51 10 -107 11q-213 0 -213 -306 z" />
<glyph unicode="r" horiz-adv-x="802" d="M16 801v200q193 21 367 21q52 0 102 -2q0 -94 -14 -182h4q90 205 280 205q13 0 27 -1l-16 -309q-37 8 -68 8q-190 0 -190 -321v-420h-313v780q-84 14 -179 21z" />
<glyph unicode="s" horiz-adv-x="841" d="M70 702q0 145 112 240q123 100 338 100q63 0 178 -16l-6 -244q-80 25 -180 25q-117 0 -117 -78q0 -47 99 -90q141 -63 184 -98q98 -80 98 -219q0 -158 -127 -251.5t-342 -93.5q-80 0 -211 17l6 254q109 -33 213 -33q129 0 129 80q0 57 -96 96q-145 59 -182 88 q-96 78 -96 223z" />
<glyph unicode="t" horiz-adv-x="772" d="M16 778v240h154v301l311 84v-385h221v-240h-219v-401q0 -78 22.5 -108.5t82.5 -30.5q49 0 114 16v-248q-119 -29 -221 -29q-176 0 -243.5 71t-67.5 257v473h-154z" />
<glyph unicode="u" horiz-adv-x="1302" d="M14 801v200q202 21 384 21q54 0 106 -2v-649q0 -131 94 -131q82 0 142.5 86t60.5 198v494h311v-780q84 -14 178 -21v-201q-186 -20 -356 -20q-57 0 -111 2q0 106 11 162h-3q-111 -182 -337 -183q-301 0 -301 322v481q-84 14 -179 21z" />
<glyph unicode="v" d="M-2 1018h342l125 -361q35 -102 74 -247h4q27 121 65 237l125 371h332l-375 -1018h-317z" />
<glyph unicode="w" horiz-adv-x="1634" d="M10 1018h340l78 -283q55 -197 84 -332h4q23 139 76 318l88 297h289l90 -281q53 -168 86 -334h4q39 201 72 318l84 297h319l-317 -1018h-332l-113 354q-20 63 -59 244h-2q-20 -102 -66 -256l-102 -342h-314z" />
<glyph unicode="x" horiz-adv-x="1093" d="M10 0l336 516l-315 502h370l160 -305l162 305h344l-297 -502l315 -516h-389l-157 311l-158 -311h-371z" />
<glyph unicode="y" horiz-adv-x="1056" d="M6 1018h344l103 -297q41 -121 82 -297h2q39 162 96 328l92 266h334l-416 -1106q-90 -238 -191.5 -325t-281.5 -87q-70 0 -152 19l19 266q74 -25 145 -25q115 0 164 152l29 88z" />
<glyph unicode="z" horiz-adv-x="925" d="M90 0v223l356 518q-57 -4 -184 -4h-160v281h725v-223l-346 -510q33 2 199 2h154v-287h-744z" />
<glyph unicode="{" horiz-adv-x="770" d="M53 520v234q100 4 146 45q51 49 51 176v135q0 256 95 372.5t312 116.5h48v-249q-98 0 -131 -45t-33 -193v-135q0 -309 -189 -338v-4q188 -29 189 -348v-219q0 -150 32.5 -196t131.5 -46v-252h-48q-217 0 -312 114.5t-95 379.5v221q0 127 -51 180q-45 47 -146 51z" />
<glyph unicode="|" horiz-adv-x="561" d="M152 -512v2048h247v-2048h-247z" />
<glyph unicode="}" horiz-adv-x="765" d="M68 -174q98 0 130.5 46t32.5 196v219q0 319 189 348v4q-188 25 -189 336v137q0 147 -32.5 192.5t-130.5 45.5v249h49q215 0 310 -116.5t95 -372.5v-133q0 -129 53 -178q43 -41 146 -45v-234q-100 -4 -146 -51q-53 -53 -53 -180v-221q0 -264 -95 -379t-310 -115h-49v252z " />
<glyph unicode="~" horiz-adv-x="1163" d="M66 629q133 125 313 125q98 0 221 -52.5t182 -52.5q106 0 217 94l95 -227q-115 -143 -316 -143q-88 0 -223 52t-201 52q-115 0 -196 -82z" />
<glyph unicode="&#xa1;" horiz-adv-x="626" d="M119 864q0 76 52 127t130 51t131 -51t53 -127q0 -74 -53 -126t-131 -52q-76 0 -129 52.5t-53 125.5zM129 -463l33 1069h272l35 -1069h-340z" />
<glyph unicode="&#xa2;" horiz-adv-x="925" d="M78 545q0 193 95 331t265 177v190h234v-174q90 -8 159 -31l-28 -260q-82 39 -174 39q-104 0 -166 -66.5t-62 -187.5q0 -238 220 -237q98 0 190 43l23 -269q-74 -27 -162 -37v-202h-234v205q-178 25 -272 157q-88 123 -88 322z" />
<glyph unicode="&#xa3;" horiz-adv-x="993" d="M102 0v242q98 47 142 96q51 59 51 151q0 29 -12 132h-170v239h145q-20 190 -20 193q0 397 411 397q92 0 185 -16l-19 -256q-63 14 -125 14q-135 0 -135 -145q0 -47 16 -187h236v-239h-211q6 -45 6 -91q0 -154 -117 -264q129 6 142 6h260v-272h-785z" />
<glyph unicode="&#xa4;" horiz-adv-x="1136" d="M63 -209q0 70 43.5 137.5t102.5 98.5q-98 47 -98 157q0 61 34.5 112.5t87.5 74.5q-152 80 -151 274q0 170 119 279q129 119 352 118q88 0 190 -24h342v-246h-116q31 -31 30 -92q0 -172 -115.5 -270.5t-334.5 -98.5q-25 0 -70 4q-37 -14 -37 -51q0 -41 58 -49q18 -4 88 -4 h139q350 0 350 -303q0 -174 -153 -293q-162 -125 -418 -125q-442 0 -443 301zM371 -147q0 -127 180 -127q104 0 161.5 39t57.5 100q0 104 -131 104h-162q-29 0 -39 2q-68 -43 -67 -118zM381 670q0 -150 164 -150q74 0 117 40t43 108q0 150 -162 149q-74 0 -118 -40t-44 -107 z" />
<glyph unicode="&#xa5;" horiz-adv-x="1243" d="M25 1382h346l157 -323q43 -88 93 -223h4q25 78 110 249l150 297h336l-369 -725h229v-192h-303v-105h303v-196h-303v-164h-315v164h-305v196h305v105h-305v192h229z" />
<glyph unicode="&#xa7;" horiz-adv-x="1067" d="M104 666q0 190 146 301q-68 84 -68 204q0 152 111 248q129 113 377 113q96 0 155 -14l-14 -263q-63 20 -145 21q-147 0 -148 -98q0 -59 115 -156q166 -141 213 -199q115 -141 115 -303q0 -188 -148 -299q72 -86 72 -213q0 -143 -115 -241q-137 -117 -397 -117 q-88 0 -172 18l18 266q72 -23 158 -22q170 0 170 106q0 63 -115 158q-170 139 -213 191q-115 135 -115 299zM385 705q0 -68 51 -131.5t205 -196.5q41 34 41 100q0 78 -72 156q-92 90 -184 178q-41 -37 -41 -106z" />
<glyph unicode="&#xa8;" horiz-adv-x="1118" d="M164 1321q0 66 48 114t114 48q68 0 114.5 -48t46.5 -114q0 -68 -47 -115t-114 -47q-66 0 -114 47t-48 115zM592 1321q0 66 48 114t114 48q68 0 114.5 -48t46.5 -114q0 -68 -47 -115t-114 -47q-66 0 -114 47t-48 115z" />
<glyph unicode="&#xa9;" horiz-adv-x="1566" d="M74 682q0 293 207.5 501t500.5 208q295 0 502 -207t207 -502q0 -293 -208 -501t-501 -208q-297 0 -502.5 207t-205.5 502zM305 682q0 -197 140.5 -338t336.5 -141q199 0 338.5 140t139.5 339q0 197 -139.5 337t-338.5 140q-197 0 -337 -139t-140 -338zM444 676 q0 162 88 262q96 111 273 111q98 0 174 -35l-37 -201q-39 33 -117 33q-127 0 -127 -166q0 -147 117 -148q74 0 131 29l43 -196q-90 -45 -213 -46q-150 0 -241 96.5t-91 260.5z" />
<glyph unicode="&#xaa;" horiz-adv-x="899" d="M66 831q0 141 131 213q113 63 295 64v27q0 78 -111 77q-104 0 -240 -55l-24 201q145 47 303 47q324 0 323 -244v-311q90 -14 138 -19v-174q-188 -23 -373 -16q0 63 6 96h-2q-23 -51 -81 -83.5t-126 -32.5q-115 0 -177 59t-62 151zM307 866q0 -57 66 -57q55 0 87 39t32 86 v20q-184 0 -185 -88z" />
<glyph unicode="&#xab;" horiz-adv-x="1126" d="M70 510l219 422l243 -107l-165 -313l170 -309l-254 -109zM549 510l242 410l235 -111l-180 -297l184 -293l-246 -113z" />
<glyph unicode="&#xac;" horiz-adv-x="1181" d="M66 408v254h1009v-549h-278v295h-731z" />
<glyph unicode="&#xad;" horiz-adv-x="690" d="M86 399v250h516v-250h-516z" />
<glyph unicode="&#xae;" horiz-adv-x="1157" d="M80 1090q0 205 145.5 347t352.5 142q209 0 353 -141.5t144 -347.5q0 -203 -145.5 -345.5t-351.5 -142.5q-209 0 -353.5 141.5t-144.5 346.5zM262 1092q0 -131 92 -224.5t224 -93.5q131 0 223 92t92 224q0 131 -92 224t-223 93t-223.5 -92t-92.5 -223zM401 866v451h207 q164 0 164 -131q0 -90 -78 -125q12 -12 27 -49l57 -146h-164l-57 162h-18v-162h-138zM539 1122h20q57 0 57 47q0 43 -51 43h-26v-90z" />
<glyph unicode="&#xaf;" horiz-adv-x="649" d="M90 1206v226h438v-226h-438z" />
<glyph unicode="&#xb0;" horiz-adv-x="811" d="M72 1221q0 139 104 225q96 80 227 80q162 0 248 -88q74 -80 74 -211q0 -145 -104 -232q-96 -78 -234 -77q-147 0 -231 80.5t-84 222.5zM299 1223q0 -111 100 -111q99 0 99 115q0 43 -26 74.5t-71 31.5t-73.5 -30.5t-28.5 -79.5z" />
<glyph unicode="&#xb1;" horiz-adv-x="1224" d="M100 535v258h365v360h297v-360h364v-258h-364v-365h-297v365h-365zM111 76h1003v-260h-1003v260z" />
<glyph unicode="&#xb4;" horiz-adv-x="811" d="M174 1317l399 223l121 -215l-420 -188z" />
<glyph unicode="&#xb6;" horiz-adv-x="1243" d="M96 915q0 215 141.5 341t366.5 126v-933q-254 0 -389 139q-119 125 -119 327zM629 55h137v1327h387v-252h-127v-1327h-397v252z" />
<glyph unicode="&#xb7;" horiz-adv-x="598" d="M104 586q0 80 57.5 137t137.5 57t137.5 -57t57.5 -137t-57.5 -137.5t-137.5 -57.5t-137.5 57.5t-57.5 137.5z" />
<glyph unicode="&#xb8;" horiz-adv-x="819" d="M215 -401q117 74 117 176q0 57 -37 121h283q41 -80 40 -150q0 -172 -256 -264z" />
<glyph unicode="&#xba;" horiz-adv-x="880" d="M66 1004q0 186 114 296q109 106 275 107q356 0 356 -383q0 -180 -111.5 -290.5t-281.5 -110.5q-158 0 -248 86q-104 98 -104 295zM311 1016q0 -182 123 -182q131 0 131 182q0 178 -127 178t-127 -178z" />
<glyph unicode="&#xbb;" horiz-adv-x="1126" d="M96 807l248 113l236 -404l-242 -410l-238 111l183 297zM592 823l254 109l213 -416l-219 -422l-246 107l168 313z" />
<glyph unicode="&#xbf;" horiz-adv-x="894" d="M78 -33q0 129 82 232q78 76 153 153q84 84 84 172q0 37 -14 82h303q29 -78 29 -145q0 -106 -76 -197q-6 -4 -143 -133q-76 -72 -76 -131q0 -84 103.5 -135t285.5 -55l-39 -283q-344 10 -530 145q-162 119 -162 295zM344 864q0 76 53.5 127t130.5 51q78 0 131.5 -51 t53.5 -127q0 -74 -53.5 -126t-131.5 -52t-131 52.5t-53 125.5z" />
<glyph unicode="&#xc0;" horiz-adv-x="1296" d="M-8 0l467 1382h362l486 -1382h-351l-86 256h-477l-84 -256h-317zM277 1649l125 217l399 -225l-103 -182zM471 508h320l-97 276q-47 135 -63 230h-4q-25 -125 -66 -246z" />
<glyph unicode="&#xc1;" horiz-adv-x="1296" d="M-8 0l467 1382h362l486 -1382h-351l-86 256h-477l-84 -256h-317zM428 1641l399 223l121 -215l-420 -188zM471 508h320l-97 276q-47 135 -63 230h-4q-25 -125 -66 -246z" />
<glyph unicode="&#xc2;" horiz-adv-x="1296" d="M-8 0l467 1382h362l486 -1382h-351l-86 256h-477l-84 -256h-317zM315 1657l326 172l330 -170l-88 -184l-242 123l-240 -123zM471 508h320l-97 276q-47 135 -63 230h-4q-25 -125 -66 -246z" />
<glyph unicode="&#xc3;" horiz-adv-x="1296" d="M-8 0l467 1382h362l486 -1382h-351l-86 256h-477l-84 -256h-317zM268 1721q102 92 220 92q80 0 169 -51.5t148 -51.5q84 0 147 64l56 -207q-96 -88 -219 -88q-88 0 -175.5 50t-148.5 50q-76 0 -141 -65zM471 508h320l-97 276q-47 135 -63 230h-4q-25 -125 -66 -246z" />
<glyph unicode="&#xc4;" horiz-adv-x="1296" d="M-8 0l467 1382h362l486 -1382h-351l-86 256h-477l-84 -256h-317zM264 1634q0 66 48 114t114 48q68 0 114.5 -48t46.5 -114q0 -68 -47 -115t-114 -47q-66 0 -114 47t-48 115zM471 508h320l-97 276q-47 135 -63 230h-4q-25 -125 -66 -246zM692 1634q0 66 48 114t114 48 q68 0 114.5 -48t46.5 -114q0 -68 -47 -115t-114 -47q-66 0 -114 47t-48 115z" />
<glyph unicode="&#xc5;" horiz-adv-x="1296" d="M-8 0l467 1382h362l486 -1382h-351l-86 256h-477l-84 -256h-317zM471 508h320l-97 276q-47 135 -63 230h-4q-25 -125 -66 -246z" />
<glyph unicode="&#xc6;" horiz-adv-x="1613" d="M-72 0l652 1382h925v-268h-452v-274h436v-260h-436v-306h465v-274h-770v287h-369l-127 -287h-324zM483 535h265v579h-5q-68 -176 -122 -293z" />
<glyph unicode="&#xc7;" horiz-adv-x="1136" d="M68 641q0 344 178 545q186 207 522 207q150 0 283 -35l-37 -289q-127 37 -252 37q-164 0 -254 -110.5t-90 -301.5q0 -422 360 -422q137 0 242 50l37 -285q-160 -55 -342 -55q-350 0 -514 213q-133 168 -133 446zM442 -401q117 74 117 176q0 57 -37 121h283 q41 -80 40 -150q0 -172 -256 -264z" />
<glyph unicode="&#xc8;" horiz-adv-x="997" d="M123 0v1382h778v-268h-459v-274h435v-260h-435v-306h459v-274h-778zM187 1649l125 217l399 -225l-103 -182z" />
<glyph unicode="&#xc9;" horiz-adv-x="997" d="M123 0v1382h778v-268h-459v-274h435v-260h-435v-306h459v-274h-778zM299 1641l399 223l121 -215l-420 -188z" />
<glyph unicode="&#xca;" horiz-adv-x="997" d="M123 0v1382h778v-268h-459v-274h435v-260h-435v-306h459v-274h-778zM182 1657l326 172l330 -170l-88 -184l-242 123l-240 -123z" />
<glyph unicode="&#xcb;" horiz-adv-x="997" d="M123 0v1382h778v-268h-459v-274h435v-260h-435v-306h459v-274h-778zM135 1634q0 66 48 114t114 48q68 0 114.5 -48t46.5 -114q0 -68 -47 -115t-114 -47q-66 0 -114 47t-48 115zM563 1634q0 66 48 114t114 48q68 0 114.5 -48t46.5 -114q0 -68 -47 -115t-114 -47 q-66 0 -114 47t-48 115z" />
<glyph unicode="&#xcc;" horiz-adv-x="565" d="M-8 1647l125 219l399 -226l-102 -182zM123 0v1382h319v-1382h-319z" />
<glyph unicode="&#xcd;" horiz-adv-x="565" d="M35 1638l401 226l119 -215l-420 -189zM123 0v1382h319v-1382h-319z" />
<glyph unicode="&#xce;" horiz-adv-x="565" d="M-41 1655l326 174l329 -170l-88 -186l-243 124l-240 -124zM123 0v1382h319v-1382h-319z" />
<glyph unicode="&#xcf;" horiz-adv-x="565" d="M-96 1634q0 66 47 114t115 48q66 0 113.5 -48t47.5 -114q0 -68 -48 -114.5t-113 -46.5q-68 0 -115 47t-47 114zM123 0v1382h319v-1382h-319zM332 1634q0 66 47 114t115 48q66 0 113.5 -48t47.5 -114q0 -68 -48 -114.5t-113 -46.5q-68 0 -115 47t-47 114z" />
<glyph unicode="&#xd1;" horiz-adv-x="1419" d="M123 0v1382h409l304 -546q66 -119 168 -340q-14 166 -15 432v454h307v-1382h-407l-326 596q-78 141 -143 303q10 -170 10 -373v-526h-307zM327 1721q102 92 220 92q80 0 169 -51.5t148 -51.5q84 0 147 64l56 -207q-96 -88 -219 -88q-88 0 -175.5 50t-148.5 50 q-76 0 -141 -65z" />
<glyph unicode="&#xd2;" horiz-adv-x="1437" d="M57 674q0 330 203 536q193 199 483 199q289 0 455 -166q182 -182 182 -530q0 -334 -198 -541q-193 -199 -488 -199q-315 0 -479 189q-158 180 -158 512zM395 700q0 -434 318 -434q131 0 221 96q108 115 108 330q0 426 -323 426q-135 0 -223 -100q-100 -113 -101 -318z M420 1649l125 217l399 -225l-103 -182z" />
<glyph unicode="&#xd3;" horiz-adv-x="1437" d="M57 674q0 330 203 536q193 199 483 199q289 0 455 -166q182 -182 182 -530q0 -334 -198 -541q-193 -199 -488 -199q-315 0 -479 189q-158 180 -158 512zM395 700q0 -434 318 -434q131 0 221 96q108 115 108 330q0 426 -323 426q-135 0 -223 -100q-100 -113 -101 -318z M551 1641l399 223l121 -215l-420 -188z" />
<glyph unicode="&#xd4;" horiz-adv-x="1437" d="M57 674q0 330 203 536q193 199 483 199q289 0 455 -166q182 -182 182 -530q0 -334 -198 -541q-193 -199 -488 -199q-315 0 -479 189q-158 180 -158 512zM395 700q0 -434 318 -434q131 0 221 96q108 115 108 330q0 426 -323 426q-135 0 -223 -100q-100 -113 -101 -318z M413 1657l326 172l330 -170l-88 -184l-242 123l-240 -123z" />
<glyph unicode="&#xd5;" horiz-adv-x="1437" d="M57 674q0 330 203 536q193 199 483 199q289 0 455 -166q182 -182 182 -530q0 -334 -198 -541q-193 -199 -488 -199q-315 0 -479 189q-158 180 -158 512zM360 1729q102 92 220 92q80 0 169 -51.5t148 -51.5q84 0 147 64l56 -207q-96 -88 -219 -88q-88 0 -175.5 50 t-148.5 50q-76 0 -141 -65zM395 700q0 -434 318 -434q131 0 221 96q108 115 108 330q0 426 -323 426q-135 0 -223 -100q-100 -113 -101 -318z" />
<glyph unicode="&#xd6;" horiz-adv-x="1437" d="M57 674q0 330 203 536q193 199 483 199q289 0 455 -166q182 -182 182 -530q0 -334 -198 -541q-193 -199 -488 -199q-315 0 -479 189q-158 180 -158 512zM367 1634q0 66 48 114t114 48q68 0 114.5 -48t46.5 -114q0 -68 -47 -115t-114 -47q-66 0 -114 47t-48 115zM395 700 q0 -434 318 -434q131 0 221 96q108 115 108 330q0 426 -323 426q-135 0 -223 -100q-100 -113 -101 -318zM795 1634q0 66 48 114t114 48q68 0 114.5 -48t46.5 -114q0 -68 -47 -115t-114 -47q-66 0 -114 47t-48 115z" />
<glyph unicode="&#xd8;" horiz-adv-x="1437" d="M57 674q0 338 195 540q186 195 483 195q45 0 88 -6l66 188l227 -69l-61 -183q317 -154 317 -639q0 -324 -193.5 -525.5t-482.5 -201.5q-61 0 -104 9l-68 -199l-229 72l67 194q-305 160 -305 625zM377 694q0 -236 92 -325l260 747q-170 10 -266 -123q-86 -119 -86 -299z M684 258q33 -6 76 0q125 16 203 115q90 114 90 313q0 246 -103 340z" />
<glyph unicode="&#xd9;" horiz-adv-x="1378" d="M123 487v895h319v-876q0 -131 52 -193q57 -72 196 -71q135 0 192.5 64.5t57.5 217.5v858h315v-839q0 -569 -585 -570q-547 0 -547 514zM351 1649l125 217l399 -225l-103 -182z" />
<glyph unicode="&#xda;" horiz-adv-x="1378" d="M123 487v895h319v-876q0 -131 52 -193q57 -72 196 -71q135 0 192.5 64.5t57.5 217.5v858h315v-839q0 -569 -585 -570q-547 0 -547 514zM500 1641l399 223l121 -215l-420 -188z" />
<glyph unicode="&#xdb;" horiz-adv-x="1378" d="M123 487v895h319v-876q0 -131 52 -193q57 -72 196 -71q135 0 192.5 64.5t57.5 217.5v858h315v-839q0 -569 -585 -570q-547 0 -547 514zM362 1657l326 172l330 -170l-88 -184l-242 123l-240 -123z" />
<glyph unicode="&#xdc;" horiz-adv-x="1378" d="M123 487v895h319v-876q0 -131 52 -193q57 -72 196 -71q135 0 192.5 64.5t57.5 217.5v858h315v-839q0 -569 -585 -570q-547 0 -547 514zM295 1634q0 66 48 114t114 48q68 0 114.5 -48t46.5 -114q0 -68 -47 -115t-114 -47q-66 0 -114 47t-48 115zM723 1634q0 66 48 114 t114 48q68 0 114.5 -48t46.5 -114q0 -68 -47 -115t-114 -47q-66 0 -114 47t-48 115z" />
<glyph unicode="&#xdf;" horiz-adv-x="1263" d="M121 0v1004q0 260 153 393q135 117 361 116q201 0 323.5 -85t122.5 -236q0 -111 -55 -184q-6 -8 -104 -103q-55 -53 -56 -112q0 -57 90 -117q137 -92 166 -121q90 -90 90 -223q0 -162 -121.5 -260.5t-312.5 -98.5q-139 0 -227 35l12 252q90 -47 191 -47q133 0 133 90 q0 59 -88 115q-135 86 -162 112q-88 86 -88 222q0 100 53 178q49 57 100.5 117.5t51.5 126.5q0 98 -129 98q-193 0 -193 -254v-1018h-311z" />
<glyph unicode="&#xe0;" horiz-adv-x="1146" d="M66 256q0 186 165 287q154 94 408 94v39q0 125 -182 125q-160 0 -297 -74l-25 258q188 59 369 59q252 0 356 -94q92 -84 92 -270v-442q84 -14 178 -21v-201q-248 -27 -462 -18q0 104 8 156h-2q-37 -80 -121 -128.5t-191 -48.5q-143 0 -219.5 76t-76.5 203zM248 1325 l125 217l399 -225l-103 -182zM360 303q0 -88 103 -88q76 0 126 58.5t50 136.5v28q-279 0 -279 -135z" />
<glyph unicode="&#xe1;" horiz-adv-x="1146" d="M66 256q0 186 165 287q154 94 408 94v39q0 125 -182 125q-160 0 -297 -74l-25 258q188 59 369 59q252 0 356 -94q92 -84 92 -270v-442q84 -14 178 -21v-201q-248 -27 -462 -18q0 104 8 156h-2q-37 -80 -121 -128.5t-191 -48.5q-143 0 -219.5 76t-76.5 203zM340 1317 l399 223l121 -215l-420 -188zM360 303q0 -88 103 -88q76 0 126 58.5t50 136.5v28q-279 0 -279 -135z" />
<glyph unicode="&#xe2;" horiz-adv-x="1146" d="M66 256q0 186 165 287q154 94 408 94v39q0 125 -182 125q-160 0 -297 -74l-25 258q188 59 369 59q252 0 356 -94q92 -84 92 -270v-442q84 -14 178 -21v-201q-248 -27 -462 -18q0 104 8 156h-2q-37 -80 -121 -128.5t-191 -48.5q-143 0 -219.5 76t-76.5 203zM217 1333 l326 172l330 -170l-88 -184l-242 123l-240 -123zM360 303q0 -88 103 -88q76 0 126 58.5t50 136.5v28q-279 0 -279 -135z" />
<glyph unicode="&#xe3;" horiz-adv-x="1146" d="M66 256q0 186 165 287q154 94 408 94v39q0 125 -182 125q-160 0 -297 -74l-25 258q188 59 369 59q252 0 356 -94q92 -84 92 -270v-442q84 -14 178 -21v-201q-248 -27 -462 -18q0 104 8 156h-2q-37 -80 -121 -128.5t-191 -48.5q-143 0 -219.5 76t-76.5 203zM165 1397 q102 92 220 92q80 0 169 -51.5t148 -51.5q84 0 147 64l56 -207q-96 -88 -219 -88q-88 0 -175.5 50t-148.5 50q-76 0 -141 -65zM360 303q0 -88 103 -88q76 0 126 58.5t50 136.5v28q-279 0 -279 -135z" />
<glyph unicode="&#xe4;" horiz-adv-x="1146" d="M66 256q0 186 165 287q154 94 408 94v39q0 125 -182 125q-160 0 -297 -74l-25 258q188 59 369 59q252 0 356 -94q92 -84 92 -270v-442q84 -14 178 -21v-201q-248 -27 -462 -18q0 104 8 156h-2q-37 -80 -121 -128.5t-191 -48.5q-143 0 -219.5 76t-76.5 203zM164 1321 q0 66 48 114t114 48q68 0 114.5 -48t46.5 -114q0 -68 -47 -115t-114 -47q-66 0 -114 47t-48 115zM360 303q0 -88 103 -88q76 0 126 58.5t50 136.5v28q-279 0 -279 -135zM592 1321q0 66 48 114t114 48q68 0 114.5 -48t46.5 -114q0 -68 -47 -115t-114 -47q-66 0 -114 47 t-48 115z" />
<glyph unicode="&#xe5;" horiz-adv-x="1146" d="M66 256q0 186 165 287q154 94 408 94v39q0 125 -182 125q-160 0 -297 -74l-25 258q188 59 369 59q252 0 356 -94q92 -84 92 -270v-442q84 -14 178 -21v-201q-248 -27 -462 -18q0 104 8 156h-2q-37 -80 -121 -128.5t-191 -48.5q-143 0 -219.5 76t-76.5 203zM360 303 q0 -88 103 -88q76 0 126 58.5t50 136.5v28q-279 0 -279 -135z" />
<glyph unicode="&#xe6;" horiz-adv-x="1630" d="M66 256q0 186 165 287q154 94 408 94v39q0 125 -182 125q-160 0 -297 -74l-25 258q188 59 367 59q225 0 334 -102h2q104 100 282 100q219 0 334 -137q107 -125 107 -336q0 -76 -11 -137h-606q4 -213 252 -213q160 0 301 64l27 -236q-170 -70 -377 -70q-309 0 -428 193 l-2 -4q-125 -188 -361 -189q-141 0 -215.5 76t-74.5 203zM360 303q0 -88 103 -88q76 0 126 58.5t50 136.5v28q-279 0 -279 -135zM946 639h309q6 176 -143 176q-68 0 -113 -48t-53 -128z" />
<glyph unicode="&#xe7;" horiz-adv-x="856" d="M61 477q0 246 129 397q141 166 408 166q94 0 197 -26l-33 -271q-90 29 -160 29q-215 0 -215 -270q0 -252 211 -252q98 0 172 37l25 -264q-113 -43 -267 -43q-467 0 -467 497zM264 -401q117 74 117 176q0 57 -37 121h283q41 -80 40 -150q0 -172 -256 -264z" />
<glyph unicode="&#xe8;" d="M61 498q0 242 127 389q131 156 363 155q221 0 336 -137q106 -125 106 -336q0 -55 -10 -137h-606q4 -213 252 -213q160 0 299 64l28 -236q-170 -70 -376 -70q-518 0 -519 521zM252 1325l125 217l399 -225l-103 -182zM379 639h307q6 176 -143 176q-68 0 -113 -49t-51 -127z " />
<glyph unicode="&#xe9;" d="M61 498q0 242 127 389q131 156 363 155q221 0 336 -137q106 -125 106 -336q0 -55 -10 -137h-606q4 -213 252 -213q160 0 299 64l28 -236q-170 -70 -376 -70q-518 0 -519 521zM356 1317l399 223l121 -215l-420 -188zM379 639h307q6 176 -143 176q-68 0 -113 -49t-51 -127z " />
<glyph unicode="&#xea;" d="M61 498q0 242 127 389q131 156 363 155q221 0 336 -137q106 -125 106 -336q0 -55 -10 -137h-606q4 -213 252 -213q160 0 299 64l28 -236q-170 -70 -376 -70q-518 0 -519 521zM219 1333l326 172l330 -170l-88 -184l-242 123l-240 -123zM379 639h307q6 176 -143 176 q-68 0 -113 -49t-51 -127z" />
<glyph unicode="&#xeb;" d="M61 498q0 242 127 389q131 156 363 155q221 0 336 -137q106 -125 106 -336q0 -55 -10 -137h-606q4 -213 252 -213q160 0 299 64l28 -236q-170 -70 -376 -70q-518 0 -519 521zM176 1321q0 66 48 114t114 48q68 0 114.5 -48t46.5 -114q0 -68 -47 -115t-114 -47 q-66 0 -114 47t-48 115zM379 639h307q6 176 -143 176q-68 0 -113 -49t-51 -127zM604 1321q0 66 48 114t114 48q68 0 114.5 -48t46.5 -114q0 -68 -47 -115t-114 -47q-66 0 -114 47t-48 115z" />
<glyph unicode="&#xec;" horiz-adv-x="628" d="M6 1325l123 217l399 -225l-102 -182zM16 801v200q248 27 492 19v-1020h-313v780q-84 14 -179 21z" />
<glyph unicode="&#xed;" horiz-adv-x="628" d="M16 801v200q248 27 492 19v-1020h-313v780q-84 14 -179 21zM70 1317l401 223l119 -215l-420 -188z" />
<glyph unicode="&#xee;" horiz-adv-x="628" d="M2 1333l326 172l329 -170l-88 -184l-243 123l-238 -123zM16 801v200q248 27 492 19v-1020h-313v780q-84 14 -179 21z" />
<glyph unicode="&#xef;" horiz-adv-x="628" d="M-63 1321q0 66 48 114t113 48q68 0 115 -48t47 -114q0 -68 -47 -115t-115 -47q-66 0 -113.5 47t-47.5 115zM16 801v200q248 27 492 19v-1020h-313v780q-84 14 -179 21zM365 1321q0 66 48 114t113 48q68 0 115 -48t47 -114q0 -68 -47 -115t-115 -47q-66 0 -113.5 47 t-47.5 115z" />
<glyph unicode="&#xf1;" horiz-adv-x="1236" d="M16 801v200q250 27 469 19q0 -102 -12 -162h4q106 182 336 182q303 0 303 -321v-719h-313v647q0 131 -94 131q-80 0 -140.5 -86t-60.5 -198v-494h-313v780q-84 14 -179 21zM256 1397q102 92 220 92q80 0 169 -51.5t148 -51.5q84 0 147 64l56 -207q-96 -88 -219 -88 q-88 0 -175.5 50t-148.5 50q-76 0 -141 -65z" />
<glyph unicode="&#xf2;" horiz-adv-x="1142" d="M57 485q0 248 151.5 401.5t387.5 153.5t361.5 -130t125.5 -380q0 -246 -151.5 -399.5t-384.5 -153.5q-489 0 -490 508zM279 1325l125 217l399 -225l-103 -182zM381 520q0 -272 188 -272q86 0 138.5 69.5t52.5 194.5q0 262 -185 262q-82 0 -133 -59q-61 -70 -61 -195z" />
<glyph unicode="&#xf3;" horiz-adv-x="1142" d="M57 485q0 248 151.5 401.5t387.5 153.5t361.5 -130t125.5 -380q0 -246 -151.5 -399.5t-384.5 -153.5q-489 0 -490 508zM381 520q0 -272 188 -272q86 0 138.5 69.5t52.5 194.5q0 262 -185 262q-82 0 -133 -59q-61 -70 -61 -195zM381 1317l399 223l121 -215l-420 -188z" />
<glyph unicode="&#xf4;" horiz-adv-x="1142" d="M57 485q0 248 151.5 401.5t387.5 153.5t361.5 -130t125.5 -380q0 -246 -151.5 -399.5t-384.5 -153.5q-489 0 -490 508zM258 1333l326 172l330 -170l-88 -184l-242 123l-240 -123zM381 520q0 -272 188 -272q86 0 138.5 69.5t52.5 194.5q0 262 -185 262q-82 0 -133 -59 q-61 -70 -61 -195z" />
<glyph unicode="&#xf5;" horiz-adv-x="1142" d="M57 485q0 248 151.5 401.5t387.5 153.5t361.5 -130t125.5 -380q0 -246 -151.5 -399.5t-384.5 -153.5q-489 0 -490 508zM217 1397q102 92 220 92q80 0 169 -51.5t148 -51.5q84 0 147 64l56 -207q-96 -88 -219 -88q-88 0 -175.5 50t-148.5 50q-76 0 -141 -65zM381 520 q0 -272 188 -272q86 0 138.5 69.5t52.5 194.5q0 262 -185 262q-82 0 -133 -59q-61 -70 -61 -195z" />
<glyph unicode="&#xf6;" horiz-adv-x="1142" d="M57 485q0 248 151.5 401.5t387.5 153.5t361.5 -130t125.5 -380q0 -246 -151.5 -399.5t-384.5 -153.5q-489 0 -490 508zM209 1321q0 66 48 114t114 48q68 0 114.5 -48t46.5 -114q0 -68 -47 -115t-114 -47q-66 0 -114 47t-48 115zM381 520q0 -272 188 -272q86 0 138.5 69.5 t52.5 194.5q0 262 -185 262q-82 0 -133 -59q-61 -70 -61 -195zM637 1321q0 66 48 114t114 48q68 0 114.5 -48t46.5 -114q0 -68 -47 -115t-114 -47q-66 0 -114 47t-48 115z" />
<glyph unicode="&#xf7;" horiz-adv-x="1261" d="M100 397v262h1061v-262h-1061zM446 117q0 76 54.5 130t130.5 54t130 -54t54 -130t-54 -130.5t-130 -54.5t-130.5 54.5t-54.5 130.5zM446 938q0 76 54.5 130t130.5 54t130 -54t54 -130t-54 -130t-130 -54t-130.5 54t-54.5 130z" />
<glyph unicode="&#xf8;" horiz-adv-x="1130" d="M55 494q0 252 147.5 401t381.5 149q6 0 86 -6l71 189l174 -51l-73 -185q227 -117 227 -463q0 -248 -147.5 -401.5t-378.5 -153.5q-39 0 -92 9l-80 -203l-172 53l77 201q-221 121 -221 461zM344 510q0 -123 49 -184l178 462q-109 14 -172 -81q-55 -82 -55 -197zM547 233 q43 -4 59 -2q176 29 176 287q0 127 -51 193z" />
<glyph unicode="&#xf9;" horiz-adv-x="1302" d="M14 801v200q262 27 490 19v-649q0 -131 94 -131q82 0 142.5 86t60.5 198v494h311v-780q84 -14 178 -21v-201q-248 -27 -467 -18q0 106 11 162h-3q-111 -182 -337 -183q-301 0 -301 322v481q-84 14 -179 21zM295 1325l125 217l399 -225l-103 -182z" />
<glyph unicode="&#xfa;" horiz-adv-x="1302" d="M14 801v200q262 27 490 19v-649q0 -131 94 -131q82 0 142.5 86t60.5 198v494h311v-780q84 -14 178 -21v-201q-248 -27 -467 -18q0 106 11 162h-3q-111 -182 -337 -183q-301 0 -301 322v481q-84 14 -179 21zM463 1317l399 223l121 -215l-420 -188z" />
<glyph unicode="&#xfb;" horiz-adv-x="1302" d="M14 801v200q262 27 490 19v-649q0 -131 94 -131q82 0 142.5 86t60.5 198v494h311v-780q84 -14 178 -21v-201q-248 -27 -467 -18q0 106 11 162h-3q-111 -182 -337 -183q-301 0 -301 322v481q-84 14 -179 21zM317 1333l326 172l330 -170l-88 -184l-242 123l-240 -123z" />
<glyph unicode="&#xfc;" horiz-adv-x="1302" d="M14 801v200q262 27 490 19v-649q0 -131 94 -131q82 0 142.5 86t60.5 198v494h311v-780q84 -14 178 -21v-201q-248 -27 -467 -18q0 106 11 162h-3q-111 -182 -337 -183q-301 0 -301 322v481q-84 14 -179 21zM264 1321q0 66 48 114t114 48q68 0 114.5 -48t46.5 -114 q0 -68 -47 -115t-114 -47q-66 0 -114 47t-48 115zM692 1321q0 66 48 114t114 48q68 0 114.5 -48t46.5 -114q0 -68 -47 -115t-114 -47q-66 0 -114 47t-48 115z" />
<glyph unicode="&#xff;" horiz-adv-x="1056" d="M6 1018h344l103 -297q41 -121 82 -297h2q39 162 96 328l92 266h334l-416 -1106q-90 -238 -191.5 -325t-281.5 -87q-70 0 -152 19l19 266q74 -25 145 -25q115 0 164 152l29 88zM162 1321q0 66 48 114t114 48q68 0 114.5 -48t46.5 -114q0 -68 -47 -115t-114 -47 q-66 0 -114 47t-48 115zM590 1321q0 66 48 114t114 48q68 0 114.5 -48t46.5 -114q0 -68 -47 -115t-114 -47q-66 0 -114 47t-48 115z" />
<glyph unicode="&#x152;" horiz-adv-x="1662" d="M57 674q0 326 193 528q186 195 465 195q66 0 149.5 -7.5t126.5 -7.5h574v-268h-459v-274h436v-260h-436v-306h459v-274h-559q-59 0 -163 -9t-165 -9q-305 0 -467 190q-154 180 -154 502zM389 698q0 -432 320 -432q53 0 94 10v828q-41 8 -92 8q-139 0 -230.5 -112.5 t-91.5 -301.5z" />
<glyph unicode="&#x153;" horiz-adv-x="1742" d="M57 498q0 246 150 397q145 145 375 145q219 0 333 -122q121 125 316 124q221 0 336 -137q106 -125 106 -336q0 -76 -10 -137h-606q4 -213 252 -213q162 0 301 64l26 -236q-170 -70 -376 -70q-254 0 -381 140q-121 -139 -342 -140q-479 0 -480 521zM362 510 q0 -270 195 -270q90 0 143.5 71.5t53.5 200.5q0 268 -193 268q-82 0 -135 -59q-63 -72 -64 -211zM1059 639h309q6 176 -145 176q-68 0 -113 -49t-51 -127z" />
<glyph unicode="&#x178;" horiz-adv-x="1183" d="M-4 1382h348l158 -352q55 -125 88 -221h4q25 74 106 250l150 323h336l-438 -899v-483h-320v481zM215 1634q0 66 48 114t114 48q68 0 114.5 -48t46.5 -114q0 -68 -47 -115t-114 -47q-66 0 -114 47t-48 115zM643 1634q0 66 48 114t114 48q68 0 114.5 -48t46.5 -114 q0 -68 -47 -115t-114 -47q-66 0 -114 47t-48 115z" />
<glyph unicode="&#x2c6;" horiz-adv-x="864" d="M104 1333l326 172l330 -170l-88 -184l-242 123l-240 -123z" />
<glyph unicode="&#x2dc;" horiz-adv-x="917" d="M102 1397q102 92 220 92q80 0 169 -51.5t148 -51.5q84 0 147 64l56 -207q-96 -88 -219 -88q-88 0 -175.5 50t-148.5 50q-76 0 -141 -65z" />
<glyph unicode="&#x2000;" horiz-adv-x="933" />
<glyph unicode="&#x2001;" horiz-adv-x="1866" />
<glyph unicode="&#x2002;" horiz-adv-x="933" />
<glyph unicode="&#x2003;" horiz-adv-x="1866" />
<glyph unicode="&#x2004;" horiz-adv-x="622" />
<glyph unicode="&#x2005;" horiz-adv-x="466" />
<glyph unicode="&#x2006;" horiz-adv-x="311" />
<glyph unicode="&#x2007;" horiz-adv-x="311" />
<glyph unicode="&#x2008;" horiz-adv-x="233" />
<glyph unicode="&#x2009;" horiz-adv-x="373" />
<glyph unicode="&#x200a;" horiz-adv-x="103" />
<glyph unicode="&#x2010;" horiz-adv-x="690" d="M86 399v250h516v-250h-516z" />
<glyph unicode="&#x2011;" horiz-adv-x="690" d="M86 399v250h516v-250h-516z" />
<glyph unicode="&#x2012;" horiz-adv-x="690" d="M86 399v250h516v-250h-516z" />
<glyph unicode="&#x2013;" horiz-adv-x="1024" d="M0 455v274h1024v-274h-1024z" />
<glyph unicode="&#x2014;" horiz-adv-x="2048" d="M0 455v274h2048v-274h-2048z" />
<glyph unicode="&#x2018;" horiz-adv-x="577" d="M90 1057q0 251 291 497l127 -112q-125 -135 -125 -221q0 -53 43 -103.5t43 -116.5q0 -72 -47 -122q-53 -55 -137 -56q-84 0 -139.5 64.5t-55.5 169.5z" />
<glyph unicode="&#x2019;" horiz-adv-x="577" d="M68 918q127 135 127 221q0 53 -45 106q-41 47 -41 113q0 72 49 125t133 53t139 -64.5t55 -168.5q1 -252 -290 -500z" />
<glyph unicode="&#x201a;" horiz-adv-x="577" d="M68 -266q127 135 127 223q0 53 -43 102.5t-43 114.5q0 72 49 125t133 53t139 -64.5t55 -168.5q1 -250 -290 -498z" />
<glyph unicode="&#x201c;" d="M90 1057q0 252 291 497l127 -112q-125 -135 -125 -221q0 -53 43 -103.5t43 -116.5q0 -72 -47 -122q-53 -55 -137 -56q-84 0 -139.5 64.5t-55.5 169.5zM578 1057q0 250 290 497l127 -112q-127 -135 -127 -221q0 -53 43 -103.5t43 -116.5q0 -72 -49 -125t-133 -53 t-139 64.5t-55 169.5z" />
<glyph unicode="&#x201d;" d="M68 918q127 135 127 221q0 53 -45 106q-41 47 -41 113q0 72 49 125t133 53t139 -64.5t55 -168.5q1 -252 -290 -500zM553 918q127 135 127 221q0 53 -45 106q-41 47 -41 113q0 72 50 125t134 53t138.5 -64.5t54.5 -168.5q0 -250 -291 -500z" />
<glyph unicode="&#x201e;" d="M68 -266q127 135 127 223q0 53 -43 102.5t-43 114.5q0 72 49 125t133 53t139 -64.5t55 -168.5q1 -250 -290 -498zM553 -266q127 137 127 223q0 51 -45 104q-41 47 -41 113q0 72 50 125t134 53t138.5 -64.5t54.5 -166.5q0 -252 -291 -500z" />
<glyph unicode="&#x2022;" horiz-adv-x="874" d="M94 608q0 139 99.5 239.5t240.5 100.5q139 0 239.5 -100t100.5 -240q0 -141 -100.5 -241.5t-239.5 -100.5q-141 0 -240.5 100.5t-99.5 241.5z" />
<glyph unicode="&#x2026;" horiz-adv-x="1622" d="M90 166q0 80 57.5 137t135.5 57q80 0 137 -57t57 -137q0 -78 -57.5 -135.5t-136.5 -57.5q-78 0 -135.5 57.5t-57.5 135.5zM614 166q0 80 57.5 137t137.5 57q78 0 135 -57t57 -137q0 -78 -57 -135.5t-135 -57.5q-80 0 -137.5 57.5t-57.5 135.5zM1139 166q0 80 57 137 t137 57t136.5 -57t56.5 -137q0 -78 -56.5 -135.5t-136.5 -57.5t-137 57.5t-57 135.5z" />
<glyph unicode="&#x202f;" horiz-adv-x="373" />
<glyph unicode="&#x2039;" horiz-adv-x="638" d="M66 510l231 418l242 -111l-177 -305l179 -301l-250 -113z" />
<glyph unicode="&#x203a;" horiz-adv-x="638" d="M96 815l252 113l225 -412l-231 -418l-242 111l176 305z" />
<glyph unicode="&#x205f;" horiz-adv-x="466" />
<glyph unicode="&#x2122;" horiz-adv-x="1398" d="M39 1194v188h471v-188h-125v-387h-215v387h-131zM514 807l94 575h252l55 -208l15 -78l12 73l51 213h256l99 -575h-228l-30 213l-11 88l-14 -84l-51 -217h-195l-51 223l-14 78l-4 -74l-31 -227h-205z" />
<glyph unicode="&#xe000;" horiz-adv-x="1013" d="M0 0v1014h1014v-1014h-1014z" />
</font>
</defs>
</svg>
