<?xml version="1.0" standalone="no"?>
<!DOCTYPE svg PUBLIC "-//W3C//DTD SVG 1.1//EN" "http://www.w3.org/Graphics/SVG/1.1/DTD/svg11.dtd" >
<svg xmlns="http://www.w3.org/2000/svg">
<metadata></metadata>
<defs>
<font id="themixlightroman" horiz-adv-x="1445" >
<font-face units-per-em="2048" ascent="1516" descent="-532" />
<missing-glyph horiz-adv-x="446" />
<glyph horiz-adv-x="2048" />
<glyph horiz-adv-x="2048" />
<glyph unicode="&#xd;" horiz-adv-x="446" />
<glyph unicode=" "  horiz-adv-x="446" />
<glyph unicode="&#x09;" horiz-adv-x="446" />
<glyph unicode="&#xa0;" horiz-adv-x="446" />
<glyph unicode="!" horiz-adv-x="612" d="M209 82q0 -41 27.5 -69.5t68.5 -28.5t69.5 28.5t28.5 69.5t-28.5 68.5t-69.5 27.5t-68.5 -27.5t-27.5 -68.5zM229 1434l25 -1119h104l25 1119h-154z" />
<glyph unicode="&#x22;" horiz-adv-x="692" d="M119 1501l24 -436h95l26 436h-145zM430 1501l25 -436h94l24 436h-143z" />
<glyph unicode="#" horiz-adv-x="1376" d="M63 412h320l-45 -412h108l43 412h334l-43 -412h109l43 412h323v90h-313l45 430h324v90h-314l37 360h-108l-37 -360h-334l39 360h-109l-39 -360h-325v-90h315l-45 -430h-328v-90zM500 502l45 430h334l-45 -430h-334z" />
<glyph unicode="$" horiz-adv-x="995" d="M135 940q0 -102 45 -164.5t111.5 -104.5t145.5 -71t145.5 -62.5t111.5 -80.5t45 -125q0 -63 -23.5 -108.5t-63.5 -73t-93 -41t-115 -13.5q-31 0 -67.5 3t-73.5 9.5t-70.5 15.5t-60.5 19l-8 -127q59 -16 120.5 -23t139.5 -9v-273h100v279q166 25 256 124t90 240 q0 98 -45 161t-112.5 105t-146.5 71.5t-146.5 63t-112.5 81t-45 122.5q0 39 14.5 77t48 66.5t89 47t135.5 18.5q57 0 117.5 -10t115.5 -27l9 121q-45 10 -100.5 16.5t-119.5 8.5v217h-102v-223q-76 -8 -137.5 -36t-105.5 -71t-67.5 -100t-23.5 -123z" />
<glyph unicode="%" horiz-adv-x="1613" d="M96 1059q0 -86 23.5 -146.5t64.5 -97.5t95.5 -54.5t115.5 -17.5q63 0 123 22.5t106 68t72.5 109t26.5 147.5q0 86 -23.5 146t-65.5 97t-97.5 53.5t-118.5 16.5q-61 0 -119.5 -21.5t-102.5 -64.5t-72 -107.5t-28 -150.5zM221 1075q0 104 53.5 167t135.5 63q98 0 144 -55.5 t46 -172.5q0 -111 -53 -173t-141 -62q-98 0 -141.5 59.5t-43.5 173.5zM262 23l90 -66l963 1403l-92 65zM860 295q0 -86 23.5 -146.5t64.5 -97.5t95.5 -54t115.5 -17q63 0 122.5 22.5t105 67.5t73 108.5t27.5 147.5q0 86 -24.5 146t-65.5 97t-96.5 53.5t-118.5 16.5 q-61 0 -119.5 -21.5t-103 -64.5t-72 -107.5t-27.5 -150.5zM983 311q0 104 54.5 167t133.5 63q98 0 145.5 -55.5t47.5 -172.5q0 -111 -53.5 -173t-143.5 -62q-96 0 -140 59.5t-44 173.5z" />
<glyph unicode="&#x26;" horiz-adv-x="1626" d="M127 377q0 -86 29.5 -159t85 -125t136.5 -81.5t185 -29.5q174 0 310.5 57t238.5 151q66 -53 142.5 -112.5t154.5 -114.5l82 103q-59 41 -131 95t-158 124q98 123 147.5 280.5t43.5 341.5q-74 4 -160 -1t-150 -13v-70q43 -4 92.5 -9t86.5 -11q-4 -141 -46 -254t-104 -195 q-68 55 -137.5 118t-136 127.5t-128 126.5t-110.5 118q143 111 201.5 208t58.5 201q0 111 -76.5 185.5t-224.5 74.5q-80 0 -141.5 -23.5t-104.5 -63.5t-64.5 -92t-21.5 -111q0 -41 9.5 -79t32 -83t62.5 -98.5t99 -120.5q-66 -53 -122 -104.5t-96 -107t-62.5 -117.5 t-22.5 -136zM258 395q0 96 56.5 182.5t187.5 188.5q49 -55 110.5 -118.5t130 -129t141 -132.5t142.5 -124q-74 -70 -182.5 -121t-251.5 -51q-76 0 -137.5 23.5t-105.5 65.5t-67.5 97.5t-23.5 118.5zM354 1227q0 86 53.5 135t137.5 49q98 0 142 -51t44 -125q0 -90 -50 -163 t-153 -152q-98 113 -136 182t-38 125z" />
<glyph unicode="'" horiz-adv-x="382" d="M119 1501l24 -436h95l26 436h-145z" />
<glyph unicode="(" horiz-adv-x="616" d="M170 580q0 -104 11.5 -217t42 -235t86 -252t143.5 -271h122q-145 229 -212.5 470.5t-67.5 516.5q0 256 69.5 505t208.5 472h-118q-84 -135 -138.5 -266.5t-87 -257t-46 -243.5t-13.5 -222z" />
<glyph unicode=")" horiz-adv-x="616" d="M55 -395h123q88 141 143.5 271t86 252t42 235t11.5 219q0 104 -13.5 222t-46 242.5t-87 256t-136.5 266.5h-121q139 -223 209 -472t70 -505q0 -274 -67.5 -516t-213.5 -471z" />
<glyph unicode="*" horiz-adv-x="749" d="M88 1100l49 -88l195 131l-17 -234h103l-17 234l193 -131l51 90l-211 102l211 101l-49 88l-193 -131l17 233h-103l17 -233l-195 131l-51 -90l213 -101z" />
<glyph unicode="+" horiz-adv-x="1148" d="M59 473h453v-473h121v473h457v109h-457v471h-121v-471h-453v-109z" />
<glyph unicode="," horiz-adv-x="425" d="M49 -238l60 -51q100 98 145 183.5t50 148.5t-23.5 100t-73.5 37q-25 0 -45.5 -13t-30.5 -32.5t-8 -44t18 -47.5q27 -35 14.5 -107.5t-106.5 -173.5z" />
<glyph unicode="-" horiz-adv-x="669" d="M100 457h469v104h-469v-104z" />
<glyph unicode="." horiz-adv-x="425" d="M115 84q0 -41 28.5 -70.5t69.5 -29.5t69.5 29.5t28.5 70.5t-28.5 69.5t-69.5 28.5t-69.5 -28.5t-28.5 -69.5z" />
<glyph unicode="/" horiz-adv-x="849" d="M109 0h120l527 1382h-119z" />
<glyph unicode="0" horiz-adv-x="1263" d="M119 520q0 -135 35.5 -235.5t100 -167t155 -100t198.5 -33.5q111 0 208 38.5t170 111.5t116 177.5t43 233.5q0 119 -33 216t-96.5 165.5t-156.5 105.5t-212 37q-106 0 -201.5 -38t-168 -109.5t-115.5 -173t-43 -228.5zM250 535q0 98 30.5 177t83 134t123 86t150.5 31 q94 0 164.5 -34t118 -92.5t70 -137.5t22.5 -171q0 -98 -32 -179t-85 -138t-123 -89t-147 -32q-98 0 -169 35t-117 95.5t-67.5 141t-21.5 173.5z" />
<glyph unicode="1" horiz-adv-x="686" d="M63 938l27 -117l248 107v-928h133v1053h-109z" />
<glyph unicode="2" horiz-adv-x="989" d="M123 0h751v119h-180t-167.5 -1t-139 -3t-94.5 -4l4 2l262 219q137 115 200.5 211t63.5 209q0 68 -23.5 126t-68.5 101t-113.5 66.5t-156.5 23.5q-92 0 -168 -19.5t-141 -54.5l18 -114q47 29 118.5 55.5t149.5 26.5q121 0 183.5 -66t62.5 -168q0 -100 -65.5 -180 t-178.5 -176l-317 -271v-102z" />
<glyph unicode="3" horiz-adv-x="948" d="M106 -395q39 -10 82 -14.5t86 -4.5q129 0 230.5 35t171 97.5t106.5 147.5t37 183q0 68 -21.5 127.5t-60.5 105.5t-93 74.5t-122 38.5v2q117 45 190.5 135.5t73.5 215.5q0 63 -21.5 121.5t-66.5 103.5t-114.5 70.5t-167.5 25.5q-78 0 -146.5 -14.5t-134.5 -42.5l12 -115 q53 29 117 47.5t131 18.5q117 0 185.5 -61.5t68.5 -172.5q0 -78 -33.5 -134t-96 -93t-148.5 -55.5t-191 -18.5v-104q113 10 206 -2.5t157.5 -49t100.5 -99t36 -148.5q0 -68 -24.5 -127.5t-72.5 -103.5t-120 -69.5t-168 -25.5q-49 0 -93 8t-79 19z" />
<glyph unicode="4" horiz-adv-x="1099" d="M31 109l22 -109h623v-406h127v406h268v119h-268v934h-172zM158 115l516 809h2v-805h-96h-142q-76 0 -152.5 -1t-127.5 -3z" />
<glyph unicode="5" horiz-adv-x="962" d="M137 -406q37 -4 71 -6t68 -2q125 0 229.5 36t180.5 100.5t118 153t42 190.5q0 92 -35 170.5t-102.5 137t-169 92.5t-234.5 34v426h496v127h-621v-670q31 0 53.5 1t51.5 1q102 0 181 -26.5t132 -72.5t81 -108.5t28 -134.5t-27 -134.5t-79 -108.5t-130 -71.5t-182 -25.5 q-76 0 -137 16z" />
<glyph unicode="6" horiz-adv-x="1193" d="M156 571q0 -135 29.5 -244.5t86 -185t139.5 -116.5t189 -41t195.5 35.5t152 100t97 154t34.5 193.5q0 96 -28.5 176t-84 136.5t-133 87t-176.5 30.5q-131 0 -225 -53t-143 -146l-2 2q6 33 9 52.5t7 38.5q20 121 61.5 221t108 172.5t159.5 112.5t216 40q25 0 49.5 -2 t46.5 -6v115q-16 2 -39.5 3t-38.5 1q-152 0 -280.5 -52.5t-225 -161t-150.5 -273t-54 -390.5zM307 461q0 59 20.5 117.5t60.5 103.5t100.5 72.5t142.5 27.5q143 0 225 -92t82 -248q0 -74 -22.5 -138t-63.5 -112.5t-99.5 -75t-129.5 -26.5q-82 0 -141.5 32t-98.5 83 t-57.5 117.5t-18.5 138.5z" />
<glyph unicode="7" horiz-adv-x="940" d="M55 926h86h129h148t141.5 1t112.5 1t61 2q-127 -279 -245.5 -610.5t-219.5 -725.5h150q90 377 205.5 713t250.5 635v111h-819v-127z" />
<glyph unicode="8" horiz-adv-x="1120" d="M135 326q0 -72 24.5 -134.5t76 -108.5t127 -72.5t178.5 -26.5q88 0 169 24.5t141 70.5t96 114.5t36 158.5q0 76 -27.5 135.5t-72.5 106.5t-102.5 84t-114.5 72q152 94 220 182t68 198q0 70 -26.5 129.5t-75.5 102.5t-119.5 66.5t-161.5 23.5q-94 0 -170.5 -26.5 t-131 -72.5t-84 -109.5t-29.5 -139.5q0 -121 73.5 -208t208.5 -165h2q-55 -37 -110.5 -77t-98.5 -89t-69.5 -107.5t-26.5 -131.5zM272 342q0 102 75 181t194 151h2q70 -37 125 -74t95 -78t61.5 -89t21.5 -105t-22.5 -101.5t-61.5 -75t-91.5 -46t-109.5 -15.5 q-135 0 -212 69.5t-77 182.5zM293 1114q0 49 17.5 91t51 74t84 50.5t113.5 18.5q127 0 193.5 -68t66.5 -164q0 -43 -14 -81t-45 -74.5t-79 -73.5t-118 -80h-2q-129 72 -198.5 140.5t-69.5 166.5z" />
<glyph unicode="9" horiz-adv-x="1193" d="M115 586q0 -201 111.5 -317.5t310.5 -116.5q117 0 211 49t147 133h2q-4 -27 -9 -62.5t-9 -58.5q-27 -121 -71 -216t-110.5 -160.5t-159 -99.5t-214.5 -34q-27 0 -62 4t-63 12v-125q29 -4 60.5 -6t53.5 -2q158 0 291 54.5t229.5 164t150.5 277.5t54 395q0 156 -33.5 267.5 t-94 183t-143.5 106.5t-181 35q-106 0 -193.5 -37t-149 -101.5t-95 -153.5t-33.5 -191zM254 610q0 74 22.5 137.5t63.5 111.5t98.5 75t128.5 27q78 0 137.5 -29t100.5 -81t61.5 -125t20.5 -159q0 -57 -23.5 -110.5t-65.5 -95.5t-101.5 -66.5t-133.5 -24.5q-147 0 -228 88 t-81 252z" />
<glyph unicode=":" horiz-adv-x="501" d="M152 84q0 -41 28.5 -70.5t69.5 -29.5t69.5 29.5t28.5 70.5t-28.5 69.5t-69.5 28.5t-69.5 -28.5t-28.5 -69.5zM152 696q0 -41 28.5 -69.5t69.5 -28.5t69.5 28.5t28.5 69.5t-28.5 70t-69.5 29t-69.5 -29t-28.5 -70z" />
<glyph unicode=";" horiz-adv-x="501" d="M92 -238l58 -51q102 98 147 183.5t49 148.5t-24.5 100t-73.5 37q-25 0 -44.5 -13t-29.5 -32.5t-9 -44t17 -47.5q12 -18 17.5 -45t-3 -62.5t-33 -78.5t-71.5 -95zM152 696q0 -41 28.5 -69.5t69.5 -28.5t69.5 28.5t28.5 69.5t-28.5 70t-69.5 29t-69.5 -29t-28.5 -70z" />
<glyph unicode="&#x3c;" horiz-adv-x="1019" d="M131 512l645 -563l82 88l-561 477l561 494l-82 82z" />
<glyph unicode="=" horiz-adv-x="1220" d="M160 305h901v111h-901v-111zM160 627h901v108h-901v-108z" />
<glyph unicode="&#x3e;" horiz-adv-x="1019" d="M162 33l82 -82l645 577l-645 564l-82 -88l561 -478z" />
<glyph unicode="?" horiz-adv-x="851" d="M174 1327q84 -8 156.5 -31.5t125 -60.5t82 -84t29.5 -102q0 -61 -30.5 -110.5t-73.5 -95.5t-89 -95.5t-77 -111t-37 -139t31 -182.5h125q-35 102 -26 177t42 132.5t81 104.5t91 95t75 104.5t32 134.5q0 74 -39 139.5t-107.5 116.5t-165 84t-209.5 41zM264 82 q0 -41 27.5 -69.5t68.5 -28.5t70 28.5t29 69.5t-29 68.5t-70 27.5t-68.5 -27.5t-27.5 -68.5z" />
<glyph unicode="@" horiz-adv-x="1738" d="M170 639q0 -147 47 -272t134 -215.5t211 -140.5t278 -50q72 0 153.5 10.5t145.5 26.5v111q-72 -23 -141.5 -33t-143.5 -10q-133 0 -237.5 44t-177 122.5t-111.5 185t-39 231.5q0 143 49 264t135 209t200.5 137.5t246.5 49.5q137 0 237 -43t166 -115t96.5 -164t30.5 -190 q0 -180 -60.5 -261t-168.5 -81q-76 0 -109 48t-10 167l65 368q-51 8 -108.5 14.5t-116.5 6.5q-96 0 -171 -39t-125 -104.5t-76.5 -151.5t-26.5 -182q0 -106 39 -167t139 -61q51 0 96 19.5t81 50.5t60.5 67.5t36.5 71.5h4q-6 -37 0.5 -74.5t29 -67.5t62 -48.5t101.5 -18.5 q82 0 151.5 28t119.5 83t78 139t28 199q0 123 -41 232.5t-122 193.5t-202 133t-278 49q-152 0 -289 -58.5t-240.5 -160.5t-165 -243.5t-61.5 -309.5zM668 606q0 53 13 115.5t44 116t79 89.5t116 36q67 -1 116 -13l-18 -88q-18 -88 -45 -161.5t-61.5 -128t-74.5 -84 t-85 -29.5q-84 0 -84 147z" />
<glyph unicode="A" horiz-adv-x="1245" d="M33 0h137l129 352h637l125 -352h151l-518 1382h-141zM336 459l217 590q35 94 63 194h2q14 -53 27.5 -100t34.5 -99l217 -585h-561z" />
<glyph unicode="B" horiz-adv-x="1153" d="M197 0q78 -2 166 -4t151 -2q166 0 267.5 44t157.5 108.5t74.5 135.5t18.5 124q0 55 -16.5 108t-53 97t-94 75t-139.5 43v2q123 35 196.5 125t73.5 207q0 147 -104 235t-332 88q-125 0 -213 -2t-153 -2v-1382zM328 113v551q29 2 73 2h66q90 0 168 -12.5t136 -43t92 -82 t34 -129.5q0 -63 -21.5 -118.5t-65.5 -95.5t-114.5 -62.5t-169.5 -22.5q-72 0 -120 4.5t-78 8.5zM328 768v510q47 2 102 3t109 1q98 0 160.5 -18.5t99.5 -50t51 -77t14 -96.5q0 -131 -101 -202.5t-296 -71.5h-74q-31 0 -65 2z" />
<glyph unicode="C" horiz-adv-x="1218" d="M106 662q0 -158 39 -284t116 -214t192.5 -134t271.5 -46q113 0 211 21t180 56l-14 117q-66 -35 -160 -57.5t-178 -22.5q-264 0 -390 154t-126 432q0 121 27.5 230.5t87 191.5t153.5 130t227 48q86 0 168 -13.5t172 -41.5l15 123q-78 20 -161 31.5t-165 11.5 q-178 0 -304 -56.5t-206 -156t-118 -233.5t-38 -287z" />
<glyph unicode="D" horiz-adv-x="1404" d="M197 0q23 1 46 1q47 0 97 -3q76 -4 180 -4q170 0 312.5 44t246 132t161.5 221t58 311q0 174 -48 304.5t-139 214.5t-224 126t-303 42q-102 0 -205 -3.5t-182 -3.5v-1382zM328 117v1159q45 2 112.5 4t126.5 2q293 0 443.5 -145.5t150.5 -442.5q0 -154 -45 -265.5 t-128 -184t-197.5 -107.5t-251.5 -35q-45 0 -104.5 4.5t-106.5 10.5z" />
<glyph unicode="E" horiz-adv-x="1040" d="M197 0h682v109h-551v553h524v104h-524v510h551v106h-682v-1382z" />
<glyph unicode="F" horiz-adv-x="964" d="M197 0h131v657h520v107h-520v512h549v106h-680v-1382z" />
<glyph unicode="G" horiz-adv-x="1406" d="M98 666q0 -162 49.5 -289t138.5 -214t215 -133t277 -46q104 0 222 18t223 57v631h-131v-551q-68 -23 -138.5 -34t-154.5 -11q-125 0 -228.5 39t-177.5 115t-114.5 186.5t-40.5 253.5q0 154 47 267.5t127 187.5t183 110.5t214 36.5q92 0 185 -19.5t184 -53.5l20 124 q-184 57 -373 58q-170 0 -305 -56.5t-228 -154.5t-143.5 -232.5t-50.5 -289.5z" />
<glyph unicode="H" d="M197 0h131v664h790v-664h131v1382h-131v-610h-790v610h-131v-1382z" />
<glyph unicode="I" horiz-adv-x="524" d="M197 0h131v1382h-131v-1382z" />
<glyph unicode="J" horiz-adv-x="665" d="M2 4q29 -6 66.5 -11t74.5 -5q176 0 252 90t76 264v1040h-133v-1028q0 -78 -12.5 -127t-36 -77.5t-57 -40t-78.5 -11.5q-39 0 -80 8.5t-72 18.5v-121z" />
<glyph unicode="K" horiz-adv-x="1177" d="M197 0h131v700l622 -700h187l-660 713l639 669h-166l-622 -669v669h-131v-1382z" />
<glyph unicode="L" horiz-adv-x="870" d="M197 0h659v109h-528v1273h-131v-1382z" />
<glyph unicode="M" horiz-adv-x="1832" d="M125 0h137l105 883q12 109 22 195.5t14 166.5h3q10 -59 35.5 -133t50.5 -147l329 -965h158l348 1028q23 68 39 123t27 94h4q4 -53 14 -134t29 -216l129 -895h139l-203 1382h-180l-344 -1001q-25 -72 -42 -124t-32 -122h-4q-10 53 -30.5 120t-47.5 144l-336 983h-172z" />
<glyph unicode="N" horiz-adv-x="1462" d="M197 0h131v408q0 96 -1 215.5t-3 237.5t-5.5 220.5t-5.5 163.5q35 -68 75 -136.5t87 -141.5l612 -967h179v1382h-131v-368q0 -100 1 -222t3 -242t5 -226.5t5 -180.5q-41 72 -83 144.5t-87 144.5l-604 950h-178v-1382z" />
<glyph unicode="O" d="M98 678q0 -156 37 -284t113 -219t189.5 -141t267.5 -50q131 0 248.5 47t204.5 139t138.5 226.5t51.5 308.5q0 166 -42 294.5t-120 218t-191.5 135.5t-255.5 46q-131 0 -247.5 -47t-203.5 -139.5t-138.5 -226.5t-51.5 -308zM240 705q0 139 38.5 247.5t105.5 183t155 113.5 t184 39q229 0 356 -157.5t127 -448.5q0 -141 -40 -250.5t-106.5 -183.5t-154.5 -113t-184 -39q-121 0 -212 45t-150.5 125t-89 191.5t-29.5 247.5z" />
<glyph unicode="P" horiz-adv-x="1062" d="M197 0h131v559q61 -6 127 -6q111 0 207 31.5t167.5 91t112.5 141.5t41 184q0 86 -30.5 157t-90 122t-147.5 80t-203 29q-174 0 -315 -7v-1382zM328 672v604q35 4 73 4h86q182 0 270.5 -77t88.5 -224q0 -141 -101.5 -228t-279.5 -89q-37 0 -72 3t-65 7z" />
<glyph unicode="Q" horiz-adv-x="1443" d="M98 678q0 -156 37 -284t113 -219t189.5 -141t267.5 -50q131 0 248.5 47t204.5 139t138.5 226.5t51.5 308.5q0 166 -42 294.5t-120 218t-191.5 135.5t-255.5 46q-131 0 -247.5 -47t-203.5 -139.5t-138.5 -226.5t-51.5 -308zM240 705q0 139 38.5 247.5t105.5 183t155 113.5 t184 39q229 0 356 -157.5t127 -448.5q0 -141 -40 -250.5t-106.5 -183.5t-154.5 -113t-184 -39q-121 0 -212 45t-150.5 125t-89 191.5t-29.5 247.5zM682 -160v-121q48 7 91 7q50 0 95 -9q84 -16 170 -37.5t182 -35.5q44 -7 95 -7q59 0 127 9v121q-56 -7 -105 -7q-53 0 -99 8 q-89 15 -174 35.5t-175 36.5q-46 7 -98 7q-51 0 -109 -7z" />
<glyph unicode="R" horiz-adv-x="1114" d="M197 0h131v653h6l530 -653h174l-432 514q-29 35 -61.5 72t-63.5 71q98 2 184.5 28t150 75t100 120.5t36.5 168.5q0 94 -34.5 159.5t-95 105.5t-141.5 57.5t-175 17.5q-109 0 -177.5 -2.5t-131.5 -4.5v-1382zM328 758v520q35 4 67.5 5t73.5 1q166 0 256 -56.5t90 -201.5 q0 -121 -92 -196.5t-262 -75.5q-49 0 -82 1t-51 3z" />
<glyph unicode="S" horiz-adv-x="1032" d="M119 1024q0 -109 48 -174.5t121.5 -109.5t157.5 -74.5t158 -66.5t122 -87t48 -137q0 -76 -27.5 -128t-75.5 -85t-110.5 -48.5t-132.5 -15.5q-72 0 -146.5 14.5t-136.5 37.5l-8 -132q114 -34 270 -34h9q115 0 206 29.5t155.5 84t98 130t33.5 165.5q0 109 -49 175.5 t-121.5 110.5t-157.5 73.5t-158 65.5t-122 86t-49 134q0 115 83 183.5t243 68.5q61 0 125.5 -10t123.5 -29l9 123q-59 10 -121 17.5t-127 7.5q-111 0 -198 -29t-147.5 -79t-92 -118.5t-31.5 -148.5z" />
<glyph unicode="T" horiz-adv-x="1064" d="M39 1274h428v-1274h131v1274h428v108h-987v-108z" />
<glyph unicode="U" horiz-adv-x="1435" d="M197 455q0 -86 18 -171t73.5 -151.5t154 -107.5t257.5 -41q270 0 404.5 137t134.5 401v860h-129v-872q0 -117 -24.5 -197t-74.5 -129t-125 -71.5t-173 -22.5q-119 0 -194 31t-118 82t-58 119.5t-15 146.5v913h-131v-927z" />
<glyph unicode="V" horiz-adv-x="1249" d="M33 1382l512 -1382h141l526 1382h-137l-350 -933q-29 -78 -55.5 -156t-48.5 -156h-3q-23 80 -49 159t-49 140l-336 946h-151z" />
<glyph unicode="W" horiz-adv-x="1951" d="M84 1382l375 -1382h166l295 1047q16 55 28.5 106t20.5 102h2q10 -47 23.5 -99t29.5 -107l305 -1049h166l371 1382h-129l-275 -1056q-14 -49 -24.5 -96.5t-20.5 -100.5h-2q-10 57 -24.5 115.5t-30.5 111.5l-301 1026h-164l-287 -1009q-16 -59 -30.5 -121t-26.5 -123h-2 q-12 66 -25.5 125t-34.5 131l-264 997h-141z" />
<glyph unicode="X" horiz-adv-x="1183" d="M45 0h152l387 616l391 -616h164l-477 727l428 655h-150l-354 -563l-359 563h-153l434 -667z" />
<glyph unicode="Y" horiz-adv-x="1062" d="M29 1382l432 -878v-504h131v504l442 878h-139l-240 -493q-33 -68 -64.5 -136.5t-58.5 -134.5h-2q-25 61 -52 124t-58 126l-246 514h-145z" />
<glyph unicode="Z" horiz-adv-x="1105" d="M96 0h920v119h-395h-242q-98 0 -135 -4q25 35 47 69.5t45 69.5l672 1034v94h-889v-116h405q111 0 196 1t144 3q-35 -49 -65.5 -94.5t-65.5 -98.5l-637 -985v-92z" />
<glyph unicode="[" horiz-adv-x="651" d="M197 -399h372v100h-252v1774h252v96h-372v-1970z" />
<glyph unicode="\" horiz-adv-x="831" d="M92 1382l524 -1382h119l-530 1382h-113z" />
<glyph unicode="]" horiz-adv-x="651" d="M80 -299v-100h373v1970h-373v-96h254v-1774h-254z" />
<glyph unicode="^" horiz-adv-x="1095" d="M143 762l93 -51l301 569l313 -569l100 53l-356 618h-111z" />
<glyph unicode="_" horiz-adv-x="1024" d="M0 -416v-100h1024v100h-1024z" />
<glyph unicode="`" horiz-adv-x="749" d="M213 1403l260 -209l66 72l-246 227z" />
<glyph unicode="a" horiz-adv-x="1085" d="M109 225q0 -123 78.5 -182t197.5 -59q135 0 229.5 70.5t130.5 170.5l5 -2q-8 -45 -10.5 -103.5t-2.5 -119.5q31 -2 65 -2q43 0 91 3q86 5 149 13v70q-45 4 -93 9t-85 11v603q0 70 -16.5 130t-55 104t-106.5 68.5t-168 24.5q-104 0 -191 -21.5t-159 -56.5l14 -116 q68 45 153 67.5t159 22.5q137 0 189 -66.5t52 -191.5v-90q-154 0 -270.5 -27t-196.5 -74t-119.5 -112.5t-39.5 -143.5zM240 252q0 37 20.5 78t74.5 74.5t150.5 56t249.5 22.5v-14q0 -70 -22.5 -137.5t-64.5 -121.5t-101.5 -87t-130.5 -33q-80 0 -128 43t-48 119z" />
<glyph unicode="b" horiz-adv-x="1161" d="M37 1411q45 -4 93 -9t85 -11v-1366q78 -18 152.5 -27.5t177.5 -9.5q117 0 213 36.5t163.5 108.5t104.5 177.5t37 244.5q0 240 -98.5 359.5t-278.5 119.5q-123 0 -217 -68.5t-139 -191.5l-4 2q10 39 14 91.5t4 93.5v534q-32 2 -67 2q-43 0 -91 -3q-86 -5 -149 -13v-70z M344 121v371q0 68 19.5 145.5t59.5 142t100.5 107.5t142.5 43q135 0 198.5 -102.5t63.5 -284.5q0 -121 -27 -206t-75 -140.5t-116.5 -81t-152.5 -25.5q-61 0 -113.5 7t-99.5 24z" />
<glyph unicode="c" horiz-adv-x="907" d="M94 473q0 -147 38 -241.5t99.5 -148.5t140.5 -74.5t158 -20.5q98 0 178.5 19.5t131.5 39.5l-13 113q-53 -29 -125.5 -45.5t-144.5 -16.5q-98 0 -160.5 32t-99.5 87t-51.5 128t-14.5 155q0 96 21.5 175t64.5 136t107.5 88t150.5 31q68 0 130.5 -13.5t115.5 -35.5l15 114 q-117 35 -246 35q-123 0 -216 -40t-154.5 -112.5t-93.5 -175t-32 -229.5z" />
<glyph unicode="d" horiz-adv-x="1165" d="M94 463q0 -223 92.5 -351t284.5 -128q123 0 218 67.5t136 184.5l4 -3q-4 -25 -8 -54t-6 -61t-3 -62.5t-1 -55.5q33 -2 68 -2q44 0 93 3q87 5 148 13v70q-45 4 -93 9t-85 11v1391q-32 2 -67 2q-43 0 -91 -3q-86 -5 -149 -13v-70q45 -4 93 -9t85 -11v-373q-111 12 -201 12 q-117 0 -212 -37t-163.5 -108.5t-105.5 -178t-37 -243.5zM231 475q0 240 100.5 346.5t268.5 106.5q106 0 213 -27v-375q0 -68 -19.5 -145.5t-59.5 -142t-100.5 -107.5t-141.5 -43q-135 0 -198 102.5t-63 284.5z" />
<glyph unicode="e" horiz-adv-x="1030" d="M94 506q0 -270 118 -396t347 -126q96 0 178 15t152 44l-12 115q-55 -29 -135 -47.5t-160 -18.5q-178 0 -270 108q-82 98 -82 309q0 23 1 48h691q4 23 4 39v29q0 82 -22.5 156.5t-70 131t-121 89t-177.5 32.5t-185.5 -40t-138.5 -110.5t-87 -168t-30 -209.5zM240 657 q23 129 97.5 204t188.5 75q124 0 194 -78q68 -76 68 -194v-7h-548z" />
<glyph unicode="f" horiz-adv-x="708" d="M12 915h234v-915h129v915h313v103h-313v74q0 158 56 232.5t183 74.5q41 0 83 -5t83 -18l13 111q-84 18 -168 18q-178 0 -278.5 -101t-100.5 -317v-69h-234v-103z" />
<glyph unicode="g" horiz-adv-x="1138" d="M94 463q0 -242 98.5 -360.5t278.5 -118.5q123 0 217 67.5t135 184.5l4 -3q-8 -43 -10 -90t-2 -106v-100q0 -98 -24.5 -166t-71.5 -109t-113.5 -58.5t-152.5 -17.5q-72 0 -151 16.5t-142 39.5l-10 -136q59 -16 129.5 -26t156.5 -10q162 0 261.5 43t153.5 106.5t72.5 136 t18.5 133.5v1115q-76 12 -160 19t-161 7q-121 0 -218.5 -37t-166 -108.5t-105.5 -178t-37 -243.5zM231 475q0 240 100.5 346.5t268.5 106.5q53 0 106.5 -5t106.5 -20v-377q0 -68 -19.5 -145.5t-59.5 -142t-100.5 -107.5t-141.5 -43q-135 0 -198 102.5t-63 284.5z" />
<glyph unicode="h" horiz-adv-x="1204" d="M37 1411q45 -4 93 -9t85 -11v-1391h129v487q0 96 24.5 177t67.5 140.5t103.5 93.5t132.5 34q121 0 164 -72t43 -198v-662h129v709q0 68 -15.5 128t-50.5 104t-94.5 69.5t-147.5 25.5q-135 0 -229 -69.5t-139 -188.5l-4 2q10 39 13 94.5t3 108.5v512q-32 2 -67 2 q-43 0 -91 -3q-86 -5 -149 -13v-70z" />
<glyph unicode="i" horiz-adv-x="565" d="M63 934q45 -4 93.5 -9t85.5 -12v-913h127v1018q-32 2 -67 2q-43 0 -91 -3q-86 -5 -148 -13v-70zM213 1305q0 -39 27.5 -66t64.5 -27q39 0 66.5 27t27.5 66q0 41 -27.5 66.5t-66.5 25.5q-37 0 -64.5 -27t-27.5 -65z" />
<glyph unicode="j" horiz-adv-x="573" d="M-80 -510q29 -10 66 -14t71 -4q92 0 153.5 22.5t98.5 70.5t52.5 121t15.5 175v1157q-32 2 -67 2q-43 0 -91 -3q-86 -5 -149 -13v-70q45 -4 93 -9t85 -12v-1060q0 -80 -8.5 -132.5t-29 -83t-55 -43t-87.5 -12.5q-35 0 -70 7.5t-64 17.5zM221 1305q0 -39 26.5 -66t65.5 -27 t66 27t27 66q0 41 -27 66.5t-66 25.5t-65.5 -27t-26.5 -65z" />
<glyph unicode="k" horiz-adv-x="987" d="M37 1411q45 -4 93 -9t85 -11v-1391h129v541l420 -541h172l-449 555l416 463h-158l-401 -463v940q-32 2 -67 2q-43 0 -91 -3q-86 -5 -149 -13v-70z" />
<glyph unicode="l" horiz-adv-x="540" d="M37 1411q45 -4 93 -9t85 -11v-1391h129v1495q-32 2 -67 2q-43 0 -91 -3q-86 -5 -149 -13v-70z" />
<glyph unicode="m" horiz-adv-x="1861" d="M63 934q45 -4 93.5 -9t85.5 -12v-913h127v483q0 98 25.5 181.5t68.5 142.5t102.5 92t126.5 33q63 0 101 -21.5t59.5 -58.5t29 -85t7.5 -103v-664h129v483q0 104 26.5 188.5t71.5 141.5t103.5 88t119.5 31q59 0 97.5 -19.5t61 -54.5t30.5 -85t8 -111v-662h129v707 q0 174 -78 251.5t-221 77.5q-80 0 -141.5 -25.5t-105.5 -64.5t-71.5 -82t-41.5 -80q0 27 -10.5 70t-41 84t-86 69.5t-147.5 28.5q-129 0 -224.5 -69.5t-138.5 -186.5l-4 2q8 49 12.5 116t4.5 120q-25 1 -51 1h-27q-41 -1 -82 -3t-79 -5t-69 -7v-70z" />
<glyph unicode="n" horiz-adv-x="1228" d="M63 934q45 -4 93.5 -9t85.5 -12v-913h127v487q0 96 24.5 177t67.5 140.5t103.5 93.5t133.5 34q119 0 163 -72t44 -198v-662h127v709q0 68 -15.5 128t-50 104t-93 69.5t-146.5 25.5q-135 0 -230.5 -69.5t-140.5 -186.5l-2 2q4 25 7.5 54.5t5.5 61.5t3 62.5t1 57.5 q-25 1 -51 1h-27q-41 -1 -82 -3t-79 -5t-69 -7v-70z" />
<glyph unicode="o" horiz-adv-x="1105" d="M90 506q0 -268 120 -395t322 -127q113 0 202 43t150.5 116.5t94.5 171.5t33 209q0 141 -36 239.5t-97.5 158t-142.5 86t-169 26.5q-115 0 -204 -43t-149 -114.5t-92 -168t-32 -202.5zM225 516q0 106 28 184t74 129.5t104 76t122 24.5q162 0 244 -109.5t82 -302.5 q0 -113 -27 -193.5t-72 -133t-103.5 -77t-121.5 -24.5q-160 0 -245 110.5t-85 315.5z" />
<glyph unicode="p" horiz-adv-x="1187" d="M63 934q45 -4 93.5 -9.5t85.5 -11.5v-1427h127v516q55 -8 101 -10t101 -2q117 0 213.5 36.5t164 107.5t104.5 176.5t37 244.5q0 240 -98.5 359.5t-278.5 119.5q-123 0 -217.5 -67.5t-137.5 -184.5l-4 2q4 23 7.5 53.5t5.5 62.5t3 62.5t1 55.5q-23 1 -49 1h-27 q-41 -1 -82 -3t-80 -5t-70 -7v-70zM369 121v371q0 68 19.5 145.5t59 142t101 107.5t143.5 43q135 0 197.5 -102.5t62.5 -284.5q0 -240 -100 -346.5t-268 -106.5q-61 0 -113.5 7t-101.5 24z" />
<glyph unicode="q" horiz-adv-x="1142" d="M98 463q0 -242 98.5 -360.5t278.5 -118.5q123 0 217 67.5t135 184.5l4 -3q-10 -45 -12 -93t-2 -77v-577q23 -1 49 -1h27q41 1 82 3t79.5 6t69.5 8v70q-45 4 -93 9t-85 11v1412q-78 12 -161 19t-162 7q-121 0 -217.5 -37t-165 -108.5t-105.5 -178t-37 -243.5zM236 475 q0 240 100 347.5t268 107.5q109 0 213 -27v-377q0 -68 -19.5 -145.5t-59.5 -142t-100 -107.5t-142 -43q-135 0 -197.5 102.5t-62.5 284.5z" />
<glyph unicode="r" horiz-adv-x="770" d="M63 934q45 -4 93.5 -9t85.5 -12v-913h127v406q0 266 84 398q70 110 203 110q27 0 57 -5l4 125q-26 3 -50 3q-53 1 -95 -15q-62 -22 -107 -63t-72.5 -96.5t-42.5 -112.5l-4 2q12 68 18.5 140.5t6.5 125.5q-25 1 -51 1h-27q-41 -1 -82 -3t-79 -5t-69 -7v-70z" />
<glyph unicode="s" horiz-adv-x="882" d="M117 743q0 -92 38 -143t95 -81t123.5 -47t124 -37.5t95.5 -54.5t38 -99q0 -88 -75 -137.5t-194 -49.5q-59 0 -119.5 9.5t-109.5 23.5l-4 -123q47 -10 102.5 -15t114.5 -5q98 0 176 24.5t131.5 67.5t82 100t28.5 123q0 88 -38 138t-95.5 79t-125 46.5t-124.5 39t-95 56 t-38 100.5q0 80 60.5 127t178.5 47q53 0 108.5 -9.5t106.5 -25.5l7 115q-98 22 -195 22h-8q-190 0 -289.5 -82t-99.5 -209z" />
<glyph unicode="t" horiz-adv-x="755" d="M2 915h234v-634q0 -78 11 -133.5t40.5 -91.5t79 -53t122.5 -17q47 0 96.5 5t90.5 13v115q-68 -18 -152 -19q-47 0 -78.5 10.5t-50 38t-26 74.5t-7.5 121v571h314v103h-314v379l-129 -35v-344h-231v-103z" />
<glyph unicode="u" horiz-adv-x="1247" d="M55 934q45 -4 93.5 -9t84.5 -12v-604q0 -68 15.5 -128t50.5 -104t94.5 -69.5t147.5 -25.5q135 0 230 69.5t138 186.5l4 -2q-10 -49 -14 -116t-4 -120q25 -1 51 -1h27q41 1 82 3t79.5 5t69.5 7v70q-45 4 -93 9t-85 11v914h-129v-488q0 -96 -24.5 -177t-67.5 -140 t-103.5 -93t-132.5 -34q-121 0 -164 71.5t-43 198.5v662q-32 2 -67 2q-43 0 -91 -3q-86 -5 -149 -13v-70z" />
<glyph unicode="v" horiz-adv-x="964" d="M25 1018l387 -1018h135l395 1018h-143l-260 -717q-16 -41 -29.5 -82t-26.5 -82h-2q-12 43 -25.5 83t-29.5 87l-254 711h-147z" />
<glyph unicode="w" horiz-adv-x="1619" d="M41 1018l317 -1018h156l201 635q20 66 39.5 128t36.5 128h2q23 -90 55 -186l242 -705h153l334 1018h-139l-199 -658q-23 -78 -39 -130t-31 -107h-2q-6 23 -12 44l-14 49t-19.5 63.5t-27.5 85.5l-213 653h-156l-211 -656q-18 -59 -35.5 -119.5t-32.5 -117.5h-2 q-12 47 -30.5 109.5t-36.5 127.5l-189 656h-147z" />
<glyph unicode="x" horiz-adv-x="1048" d="M55 0h164l299 426l299 -426h174l-391 516l375 502h-150l-297 -416l-288 416h-164l370 -510z" />
<glyph unicode="y" horiz-adv-x="950" d="M-51 -518q29 -4 63.5 -7t61.5 -3q82 0 142 21.5t108.5 70.5t89.5 129t86 196l426 1129h-142l-196 -553q-33 -92 -61.5 -177t-41.5 -132h-2q-16 55 -33.5 109t-43.5 126l-230 627h-151l393 -1018l-49 -127q-33 -86 -63 -141.5t-61.5 -88t-69.5 -46t-87 -13.5 q-63 0 -125 19z" />
<glyph unicode="z" horiz-adv-x="911" d="M100 0h701v119h-240h-84q-43 0 -86 -1t-80 -2t-61 -1l541 815v88h-680v-115h229q90 0 171 1t134 3l-545 -817v-90z" />
<glyph unicode="{" horiz-adv-x="667" d="M61 600q66 -4 109 -17.5t69.5 -40t37 -67.5t10.5 -98v-416q0 -174 62.5 -267t219.5 -93h33v100q-111 0 -153.5 55.5t-42.5 196.5v416q0 117 -46.5 192.5t-144.5 91.5v2q98 20 144.5 93t46.5 190v283q0 141 43 197.5t153 56.5v96h-33q-84 0 -138 -30t-86 -79t-45 -113.5 t-13 -136.5v-284q0 -59 -10.5 -100.5t-35 -67t-68.5 -37.5t-112 -16v-107z" />
<glyph unicode="|" horiz-adv-x="575" d="M236 -512h102v2048h-102v-2048z" />
<glyph unicode="}" horiz-adv-x="659" d="M82 -299v-100h33q158 0 220 93t62 267v416q0 57 10.5 98t37 67.5t68.5 40t108 17.5v107q-68 4 -111 16t-67.5 38.5t-35 69.5t-10.5 107v274q0 72 -13 136.5t-45 113.5t-87 79t-137 30h-33v-96q111 0 154 -56.5t43 -197.5v-293q0 -111 45 -184.5t145 -88.5v-2 q-98 -16 -144 -92t-46 -192v-416q0 -141 -43 -196.5t-154 -55.5z" />
<glyph unicode="~" horiz-adv-x="1196" d="M117 575l45 -92q35 29 85 59.5t115 30.5q59 0 107.5 -22.5t97.5 -48t107.5 -48t138.5 -22.5q78 0 145.5 35t120.5 84l-49 90q-41 -39 -97 -68.5t-106 -29.5q-70 0 -119 21.5t-97 48t-103 48t-135 21.5q-82 0 -147.5 -35t-108.5 -72z" />
<glyph unicode="&#xa1;" horiz-adv-x="612" d="M207 940q0 -41 28.5 -68.5t69.5 -27.5t69.5 27.5t28.5 68.5t-28.5 68.5t-69.5 27.5t-69.5 -27.5t-28.5 -68.5zM229 -414h152l-25 1121h-104z" />
<glyph unicode="&#xa2;" horiz-adv-x="935" d="M92 567q0 -223 107.5 -345t304.5 -138v-223h104v223q72 6 133.5 22t108.5 39l-10 117q-51 -31 -121 -50t-139 -19q-100 0 -168 30.5t-110 82.5t-59.5 121t-17.5 144q0 180 95.5 281.5t261.5 101.5q143 0 252 -57l10 117q-57 23 -116.5 34t-119.5 13v182h-104v-186 q-96 -12 -172 -52t-129 -104.5t-82 -149.5t-29 -184z" />
<glyph unicode="&#xa3;" horiz-adv-x="1019" d="M125 0h760v115h-424q-51 0 -97.5 -2t-78.5 -7q57 49 99 95.5t69.5 97.5t41 109.5t13.5 130.5q0 31 -3 73.5t-9 92.5h309v100h-318q-10 88 -18 168t-8 129q0 111 51 176t162 65q76 0 157 -20l9 109q-37 8 -80 12t-78 4q-168 0 -258 -83t-90 -284q0 -53 8 -131t16 -145 h-233v-100h244q6 -70 10 -115t4 -68q0 -66 -15.5 -121t-48 -106t-81 -100.5t-113.5 -100.5v-94z" />
<glyph unicode="&#xa4;" horiz-adv-x="1126" d="M147 209l93 -68l149 201q70 -33 160 -33q111 0 199 60l170 -228l90 70l-183 223q86 96 86 250q0 86 -19.5 146.5t-53.5 99.5l170 209l-86 69l-162 -213q-43 27 -92.5 36t-92.5 9q-49 0 -95 -11t-87 -34l-155 213l-88 -67l163 -203q-98 -98 -98 -262q0 -92 23.5 -161 t64.5 -116zM336 680q0 119 62.5 189.5t156.5 70.5q66 0 111 -19.5t72.5 -54.5t40 -82t12.5 -100q0 -63 -18.5 -113.5t-49.5 -86t-71 -55t-83 -19.5q-66 0 -110.5 21.5t-72.5 58t-39 86t-11 104.5z" />
<glyph unicode="&#xa5;" horiz-adv-x="1198" d="M100 1382l402 -813h-320v-96h350v-158h-350v-96h350v-219h132v219h352v96h-352v158h352v96h-320l410 813h-137l-244 -489q-33 -68 -63.5 -137.5t-59.5 -141.5h-2q-23 63 -49.5 125t-58.5 131l-246 512h-146z" />
<glyph unicode="&#xa7;" horiz-adv-x="987" d="M164 754q0 -76 32.5 -149t83 -141.5t108.5 -134t108.5 -129t83 -124t32.5 -119.5q0 -84 -44 -137t-144 -53q-39 0 -76 7t-67 17l-15 -121q29 -6 69 -11t77 -5q88 0 151.5 27.5t104.5 71.5t60.5 99.5t19.5 110.5q0 53 -19.5 105.5t-42.5 89.5q55 47 91 117.5t36 150.5 q0 76 -32.5 149.5t-82 142t-106.5 135.5t-106.5 129t-82 121.5t-32.5 117.5q0 90 43 140t135 50q37 0 67.5 -4t63.5 -14l12 110q-25 6 -61.5 10.5t-71.5 4.5q-82 0 -142.5 -25t-100.5 -67t-59 -97t-19 -119q0 -45 17 -96t40 -86q-57 -45 -94 -116.5t-37 -157.5zM289 768 q0 59 18.5 102t50.5 68q55 -78 113.5 -146.5t108 -131t80 -124t30.5 -122.5q0 -49 -19.5 -97.5t-47.5 -70.5q-72 88 -133.5 160.5t-106.5 135t-69.5 118t-24.5 108.5z" />
<glyph unicode="&#xa8;" horiz-adv-x="1118" d="M266 1348q0 -37 24.5 -62.5t63.5 -25.5q37 0 62.5 25.5t25.5 62.5q0 39 -25.5 63.5t-62.5 24.5q-39 0 -63.5 -25t-24.5 -63zM643 1348q0 -37 25.5 -62.5t62.5 -25.5t62.5 25.5t25.5 62.5q0 39 -25.5 63.5t-62.5 24.5t-62.5 -25t-25.5 -63z" />
<glyph unicode="&#xa9;" horiz-adv-x="1540" d="M86 686q0 -141 52 -264t143.5 -214t215.5 -143.5t269 -52.5q141 0 264 53.5t215 145.5t145.5 215t53.5 264t-53.5 263t-144.5 213t-215 143.5t-265 52.5t-265 -53.5t-216 -144.5t-145.5 -214t-53.5 -264zM197 690q0 119 45 223.5t121.5 181t180 122t222.5 45.5 t222.5 -46.5t180 -124t121.5 -183t45 -222.5q0 -119 -45 -223.5t-121.5 -182t-180 -122.5t-222.5 -45t-222.5 46t-180 123.5t-121.5 183t-45 224.5zM446 676q0 -74 16.5 -137.5t55.5 -111.5t99.5 -74.5t150.5 -26.5q49 0 100.5 7t96.5 23l-11 97q-80 -31 -172 -31 q-115 0 -166 68.5t-51 193.5q0 57 11.5 107.5t38 88.5t69.5 59.5t107 21.5q84 0 159 -33l8 100q-35 10 -73.5 17.5t-83.5 7.5q-98 0 -166 -32t-110 -84t-60.5 -120.5t-18.5 -140.5z" />
<glyph unicode="&#xaa;" horiz-adv-x="796" d="M113 879q0 -72 47 -117t147 -45q35 0 69 11t61.5 29.5t47 41t29.5 47.5l4 -2q-6 -29 -9 -59.5t-3 -55.5q53 -4 119.5 0t113.5 10v66q-29 4 -58.5 6t-57.5 6q0 86 1 179.5t1 179.5q0 43 -11.5 82.5t-39 70.5t-73.5 49.5t-116 18.5q-66 0 -126 -11.5t-109 -31.5l8 -107 q43 23 97 38t114 15q47 0 74.5 -14t43 -34.5t19.5 -46t4 -46.5v-43q-197 2 -297 -66.5t-100 -170.5zM229 897q0 61 63.5 99t217.5 38v-18q0 -23 -10.5 -57.5t-32 -66.5t-56 -55.5t-83.5 -23.5q-47 0 -73 22.5t-26 61.5z" />
<glyph unicode="&#xab;" horiz-adv-x="1007" d="M129 502l236 -346l96 65l-201 281l205 286l-94 64zM485 502l254 -346l97 67l-220 279l222 284l-93 66z" />
<glyph unicode="&#xac;" horiz-adv-x="1040" d="M80 485h745v-331h111v440h-856v-109z" />
<glyph unicode="&#xad;" horiz-adv-x="669" d="M100 457h469v104h-469v-104z" />
<glyph unicode="&#xae;" horiz-adv-x="1148" d="M143 1085q0 -90 33 -168.5t91.5 -137t136 -91.5t169.5 -33q88 0 166 35t137.5 93.5t94.5 136t35 165.5q0 92 -33 170t-91.5 136.5t-137.5 91.5t-171 33q-90 0 -167.5 -34t-136 -92.5t-92.5 -137t-34 -167.5zM240 1090q0 70 26.5 130t71.5 106t105 72.5t130 26.5 t131.5 -27.5t106.5 -74.5t70.5 -109.5t25.5 -132.5t-25.5 -130t-70.5 -106t-106.5 -73t-131.5 -27t-130 28t-105 75t-71.5 109.5t-26.5 132.5zM434 852h82v209h6l131 -209h103l-99 149q-14 23 -26.5 40.5t-20.5 27.5q57 6 91 42t34 95q0 53 -35.5 86t-121.5 33h-144v-473z M516 1114v146h53q45 0 62.5 -14.5t17.5 -49.5q0 -29 -21.5 -55.5t-78.5 -26.5h-33z" />
<glyph unicode="&#xaf;" horiz-adv-x="847" d="M193 1288h458v98h-458v-98z" />
<glyph unicode="&#xb0;" horiz-adv-x="751" d="M125 1257q0 -109 65.5 -173t176.5 -64q49 0 95 17.5t82 48t57.5 76t21.5 100.5q0 98 -60.5 169.5t-185.5 71.5q-47 0 -93 -16.5t-81 -48t-56.5 -77.5t-21.5 -104zM233 1262q0 70 40 111.5t100 41.5q41 0 68.5 -14.5t44 -38t22.5 -50.5t6 -52q0 -66 -41 -109t-102 -43 q-59 0 -98.5 41t-39.5 113z" />
<glyph unicode="&#xb1;" horiz-adv-x="1155" d="M92 569h424v-430h123v430h422v109h-422v428h-123v-428h-424v-109zM102 8v-110h951v110h-951z" />
<glyph unicode="&#xb4;" horiz-adv-x="788" d="M215 1266l64 -72l260 209l-80 90z" />
<glyph unicode="&#xb6;" horiz-adv-x="1153" d="M152 963q0 -88 26.5 -167t80.5 -137.5t135 -92.5t192 -34v850q-98 0 -178 -32.5t-137.5 -89t-88 -133t-30.5 -164.5zM582 -100v-97h280v1483h152v96h-277v-1482h-155z" />
<glyph unicode="&#xb7;" horiz-adv-x="428" d="M111 592q0 -45 29.5 -75t74.5 -30q43 0 73.5 30t30.5 75q0 43 -30.5 73.5t-73.5 30.5q-45 0 -74.5 -30.5t-29.5 -73.5z" />
<glyph unicode="&#xb8;" horiz-adv-x="819" d="M352 -428l56 -57q76 49 119.5 98t60 96t11 94.5t-25.5 92.5h-131q43 -82 28 -164t-118 -160z" />
<glyph unicode="&#xba;" horiz-adv-x="849" d="M113 1051q0 -178 78.5 -255t211.5 -77q72 0 131.5 25.5t102.5 71.5t66.5 112.5t23.5 146.5q0 98 -28.5 161.5t-72.5 99.5t-97.5 49.5t-102.5 13.5q-70 0 -127 -25.5t-99 -72t-64.5 -111t-22.5 -139.5zM233 1065q0 61 16.5 105t43 73t60.5 42t69 13q51 0 86 -20.5 t56.5 -54t30.5 -76.5t9 -86q0 -121 -53 -181.5t-137 -60.5q-53 0 -88 21.5t-55.5 57.5t-29 80t-8.5 87z" />
<glyph unicode="&#xbb;" horiz-adv-x="1007" d="M168 221l92 -65l260 350l-254 346l-94 -68l217 -278zM543 219l92 -63l244 350l-238 346l-96 -66l203 -280z" />
<glyph unicode="&#xbf;" horiz-adv-x="851" d="M141 -41q0 -74 39 -140.5t107.5 -116.5t164 -84t207.5 -42l17 119q-84 6 -157 30.5t-125 61.5t-81.5 84t-29.5 102q0 61 30.5 110.5t73.5 95.5t89 95.5t77 110.5t38 139t-30 183h-127q35 -104 27 -178t-41 -131.5t-81 -104.5t-92 -95t-75 -105.5t-31 -133.5zM391 940 q0 -41 29 -68.5t69 -27.5q41 0 70 27.5t29 68.5t-29 68.5t-70 27.5t-69.5 -27.5t-28.5 -68.5z" />
<glyph unicode="&#xc0;" horiz-adv-x="1245" d="M33 0h137l129 352h637l125 -352h151l-518 1382h-141zM336 459l217 590q35 94 63 194h2q14 -53 27.5 -100t34.5 -99l217 -585h-561zM393 1712l260 -209l66 72l-246 227z" />
<glyph unicode="&#xc1;" horiz-adv-x="1245" d="M33 0h137l129 352h637l125 -352h151l-518 1382h-141zM336 459l217 590q35 94 63 194h2q14 -53 27.5 -100t34.5 -99l217 -585h-561zM504 1575l63 -72l260 209l-79 90z" />
<glyph unicode="&#xc2;" horiz-adv-x="1245" d="M33 0h137l129 352h637l125 -352h151l-518 1382h-141zM336 459l217 590q35 94 63 194h2q14 -53 27.5 -100t34.5 -99l217 -585h-561zM367 1583l61 -72l195 146l206 -146l70 78l-272 193z" />
<glyph unicode="&#xc3;" horiz-adv-x="1245" d="M33 0h137l129 352h637l125 -352h151l-518 1382h-141zM305 1669l39 -88q29 31 61.5 49.5t75.5 18.5q41 0 72 -15.5t62.5 -33t68.5 -33t90 -15.5q57 0 106 24.5t78 55.5l-36 88q-29 -29 -63 -48t-77 -19q-39 0 -70.5 15t-63.5 32.5t-68.5 33t-85.5 15.5q-53 0 -103.5 -22.5 t-85.5 -57.5zM336 459l217 590q35 94 63 194h2q14 -53 27.5 -100t34.5 -99l217 -585h-561z" />
<glyph unicode="&#xc4;" horiz-adv-x="1245" d="M33 0h137l129 352h637l125 -352h151l-518 1382h-141zM336 459l217 590q35 94 63 194h2q14 -53 27.5 -100t34.5 -99l217 -585h-561zM346 1618q0 -37 24.5 -62.5t63.5 -25.5q37 0 62.5 25.5t25.5 62.5q0 39 -25.5 63.5t-62.5 24.5q-39 0 -63.5 -24.5t-24.5 -63.5zM723 1618 q0 -37 25.5 -62.5t62.5 -25.5t62.5 25.5t25.5 62.5q0 39 -25.5 63.5t-62.5 24.5t-62.5 -24.5t-25.5 -63.5z" />
<glyph unicode="&#xc5;" horiz-adv-x="1245" d="M33 0h137l129 352h637l125 -352h151l-516 1376q61 23 101.5 77t40.5 120q0 88 -59.5 147.5t-151.5 59.5q-43 0 -82 -16.5t-67.5 -44t-46 -65.5t-17.5 -81q0 -72 37.5 -123t99.5 -72zM336 459l217 590q35 94 63 194h2q14 -53 27.5 -100t34.5 -99l217 -585h-561zM508 1573 q0 51 33.5 86t85.5 35q49 0 82.5 -35t33.5 -86q0 -49 -33.5 -85t-82.5 -36q-51 0 -85 36t-34 85z" />
<glyph unicode="&#xc6;" horiz-adv-x="1591" d="M-94 0h141l195 354h497v-354h693v109h-562v553h519v104h-519v510h537v106h-731zM295 461l299 536q55 102 86 163t55 112h4v-811h-444z" />
<glyph unicode="&#xc7;" horiz-adv-x="1218" d="M106 662q0 -158 39 -284t116 -214t192.5 -134t271.5 -46q113 0 211 21t180 56l-14 117q-66 -35 -160 -57.5t-178 -22.5q-264 0 -390 154t-126 432q0 121 27.5 230.5t87 191.5t153.5 130t227 48q86 0 168 -13.5t172 -41.5l15 123q-78 20 -161 31.5t-165 11.5 q-178 0 -304 -56.5t-206 -156t-118 -233.5t-38 -287zM545 -428l55 -57q76 49 120 98t60.5 96t11 94.5t-25.5 92.5h-131q43 -82 27.5 -164t-117.5 -160z" />
<glyph unicode="&#xc8;" horiz-adv-x="1040" d="M197 0h682v109h-551v553h524v104h-524v510h551v106h-682v-1382zM317 1712l261 -209l65 72l-246 227z" />
<glyph unicode="&#xc9;" horiz-adv-x="1040" d="M197 0h682v109h-551v553h524v104h-524v510h551v106h-682v-1382zM424 1575l63 -72l261 209l-80 90z" />
<glyph unicode="&#xca;" horiz-adv-x="1040" d="M197 0h682v109h-551v553h524v104h-524v510h551v106h-682v-1382zM266 1583l62 -72l194 146l207 -146l70 78l-273 193z" />
<glyph unicode="&#xcb;" horiz-adv-x="1040" d="M197 0h682v109h-551v553h524v104h-524v510h551v106h-682v-1382zM248 1618q0 -37 24.5 -62.5t63.5 -25.5q37 0 62.5 25.5t25.5 62.5q0 39 -25.5 63.5t-62.5 24.5q-39 0 -63.5 -24.5t-24.5 -63.5zM625 1618q0 -37 25.5 -62.5t62.5 -25.5t62.5 25.5t25.5 62.5 q0 39 -25.5 63.5t-62.5 24.5t-62.5 -24.5t-25.5 -63.5z" />
<glyph unicode="&#xcc;" horiz-adv-x="524" d="M51 1712l260 -209l66 72l-246 225zM197 0h131v1382h-131v-1382z" />
<glyph unicode="&#xcd;" horiz-adv-x="524" d="M139 1575l64 -72l262 209l-80 88zM197 0h131v1382h-131v-1382z" />
<glyph unicode="&#xce;" horiz-adv-x="524" d="M4 1583l62 -72l194 146l207 -146l68 78l-271 193zM197 0h131v1382h-131v-1382z" />
<glyph unicode="&#xcf;" horiz-adv-x="524" d="M-16 1620q0 -37 25.5 -62.5t62.5 -25.5t62.5 25.5t25.5 62.5t-25.5 62.5t-62.5 25.5t-62.5 -25.5t-25.5 -62.5zM197 0h131v1382h-131v-1382zM360 1620q0 -37 26 -62.5t63 -25.5q39 0 63.5 25.5t24.5 62.5t-25 62.5t-63 25.5q-37 0 -63 -25.5t-26 -62.5z" />
<glyph unicode="&#xd1;" horiz-adv-x="1462" d="M197 0h131v408q0 96 -1 215.5t-3 237.5t-5.5 220.5t-5.5 163.5q35 -68 75 -136.5t87 -141.5l612 -967h179v1382h-131v-368q0 -100 1 -222t3 -242t5 -226.5t5 -180.5q-41 72 -83 144.5t-87 144.5l-604 950h-178v-1382zM397 1669l39 -88q29 31 61.5 49.5t75.5 18.5 q41 0 72 -15.5t62.5 -33t68.5 -33t90 -15.5q57 0 106.5 24.5t78.5 55.5l-37 88q-29 -29 -62.5 -48t-77.5 -19q-39 0 -70.5 15t-63 32.5t-68.5 33t-86 15.5q-53 0 -103.5 -22.5t-85.5 -57.5z" />
<glyph unicode="&#xd2;" d="M98 678q0 -156 37 -284t113 -219t189.5 -141t267.5 -50q131 0 248.5 47t204.5 139t138.5 226.5t51.5 308.5q0 166 -42 294.5t-120 218t-191.5 135.5t-255.5 46q-131 0 -247.5 -47t-203.5 -139.5t-138.5 -226.5t-51.5 -308zM240 705q0 139 38.5 247.5t105.5 183t155 113.5 t184 39q229 0 356 -157.5t127 -448.5q0 -141 -40 -250.5t-106.5 -183.5t-154.5 -113t-184 -39q-121 0 -212 45t-150.5 125t-89 191.5t-29.5 247.5zM502 1712l260 -209l65 72l-245 227z" />
<glyph unicode="&#xd3;" d="M98 678q0 -156 37 -284t113 -219t189.5 -141t267.5 -50q131 0 248.5 47t204.5 139t138.5 226.5t51.5 308.5q0 166 -42 294.5t-120 218t-191.5 135.5t-255.5 46q-131 0 -247.5 -47t-203.5 -139.5t-138.5 -226.5t-51.5 -308zM240 705q0 139 38.5 247.5t105.5 183t155 113.5 t184 39q229 0 356 -157.5t127 -448.5q0 -141 -40 -250.5t-106.5 -183.5t-154.5 -113t-184 -39q-121 0 -212 45t-150.5 125t-89 191.5t-29.5 247.5zM639 1575l63 -72l261 209l-80 90z" />
<glyph unicode="&#xd4;" d="M98 678q0 -156 37 -284t113 -219t189.5 -141t267.5 -50q131 0 248.5 47t204.5 139t138.5 226.5t51.5 308.5q0 166 -42 294.5t-120 218t-191.5 135.5t-255.5 46q-131 0 -247.5 -47t-203.5 -139.5t-138.5 -226.5t-51.5 -308zM240 705q0 139 38.5 247.5t105.5 183t155 113.5 t184 39q229 0 356 -157.5t127 -448.5q0 -141 -40 -250.5t-106.5 -183.5t-154.5 -113t-184 -39q-121 0 -212 45t-150.5 125t-89 191.5t-29.5 247.5zM469 1583l61 -72l195 146l207 -146l69 78l-272 193z" />
<glyph unicode="&#xd5;" d="M98 678q0 -156 37 -284t113 -219t189.5 -141t267.5 -50q131 0 248.5 47t204.5 139t138.5 226.5t51.5 308.5q0 166 -42 294.5t-120 218t-191.5 135.5t-255.5 46q-131 0 -247.5 -47t-203.5 -139.5t-138.5 -226.5t-51.5 -308zM240 705q0 139 38.5 247.5t105.5 183t155 113.5 t184 39q229 0 356 -157.5t127 -448.5q0 -141 -40 -250.5t-106.5 -183.5t-154.5 -113t-184 -39q-121 0 -212 45t-150.5 125t-89 191.5t-29.5 247.5zM397 1669l39 -88q29 31 61.5 49.5t75.5 18.5q41 0 72 -15.5t62.5 -33t68.5 -33t90 -15.5q57 0 106.5 24.5t78.5 55.5l-37 88 q-29 -29 -62.5 -48t-77.5 -19q-39 0 -70.5 15t-63 32.5t-68.5 33t-86 15.5q-53 0 -103.5 -22.5t-85.5 -57.5z" />
<glyph unicode="&#xd6;" d="M98 678q0 -156 37 -284t113 -219t189.5 -141t267.5 -50q131 0 248.5 47t204.5 139t138.5 226.5t51.5 308.5q0 166 -42 294.5t-120 218t-191.5 135.5t-255.5 46q-131 0 -247.5 -47t-203.5 -139.5t-138.5 -226.5t-51.5 -308zM240 705q0 139 38.5 247.5t105.5 183t155 113.5 t184 39q229 0 356 -157.5t127 -448.5q0 -141 -40 -250.5t-106.5 -183.5t-154.5 -113t-184 -39q-121 0 -212 45t-150.5 125t-89 191.5t-29.5 247.5zM438 1618q0 -37 24.5 -62.5t63.5 -25.5q37 0 62.5 25.5t25.5 62.5q0 39 -25.5 63.5t-62.5 24.5q-39 0 -63.5 -24.5 t-24.5 -63.5zM815 1618q0 -37 25.5 -62.5t62.5 -25.5t62.5 25.5t25.5 62.5q0 39 -25.5 63.5t-62.5 24.5t-62.5 -24.5t-25.5 -63.5z" />
<glyph unicode="&#xd8;" d="M94 682q0 -111 18.5 -209t56.5 -181t97.5 -147.5t141.5 -103.5l-80 -215l102 -35l80 215q41 -12 87 -17t97 -5q137 0 256 46t207 136t137 223t49 307q0 254 -87 418t-246 234l73 198l-102 37l-74 -203q-80 18 -174 19q-133 0 -248.5 -47t-202.5 -138.5t-137.5 -225.5 t-50.5 -306zM233 698q0 141 39 251t104.5 184.5t151.5 113.5t183 39q45 2 81.5 -3t73.5 -15l-413 -1104q-119 74 -169.5 214t-50.5 320zM551 119l412 1106q121 -66 181 -209t60 -338q0 -141 -37 -248.5t-103.5 -181.5t-156.5 -113t-194 -39q-41 0 -81 4t-81 19z" />
<glyph unicode="&#xd9;" horiz-adv-x="1435" d="M197 455q0 -86 18 -171t73.5 -151.5t154 -107.5t257.5 -41q270 0 404.5 137t134.5 401v860h-129v-872q0 -117 -24.5 -197t-74.5 -129t-125 -71.5t-173 -22.5q-119 0 -194 31t-118 82t-58 119.5t-15 146.5v913h-131v-927zM506 1712l260 -209l65 72l-245 227z" />
<glyph unicode="&#xda;" horiz-adv-x="1435" d="M197 455q0 -86 18 -171t73.5 -151.5t154 -107.5t257.5 -41q270 0 404.5 137t134.5 401v860h-129v-872q0 -117 -24.5 -197t-74.5 -129t-125 -71.5t-173 -22.5q-119 0 -194 31t-118 82t-58 119.5t-15 146.5v913h-131v-927zM602 1575l64 -72l260 209l-80 90z" />
<glyph unicode="&#xdb;" horiz-adv-x="1435" d="M197 455q0 -86 18 -171t73.5 -151.5t154 -107.5t257.5 -41q270 0 404.5 137t134.5 401v860h-129v-872q0 -117 -24.5 -197t-74.5 -129t-125 -71.5t-173 -22.5q-119 0 -194 31t-118 82t-58 119.5t-15 146.5v913h-131v-927zM451 1583l61 -72l195 146l206 -146l70 78 l-272 193z" />
<glyph unicode="&#xdc;" horiz-adv-x="1435" d="M197 455q0 -86 18 -171t73.5 -151.5t154 -107.5t257.5 -41q270 0 404.5 137t134.5 401v860h-129v-872q0 -117 -24.5 -197t-74.5 -129t-125 -71.5t-173 -22.5q-119 0 -194 31t-118 82t-58 119.5t-15 146.5v913h-131v-927zM420 1618q0 -37 24.5 -62.5t63.5 -25.5 q37 0 62.5 25.5t25.5 62.5q0 39 -25.5 63.5t-62.5 24.5q-39 0 -63.5 -24.5t-24.5 -63.5zM797 1618q0 -37 25.5 -62.5t62.5 -25.5t62.5 25.5t25.5 62.5q0 39 -25.5 63.5t-62.5 24.5t-62.5 -24.5t-25.5 -63.5z" />
<glyph unicode="&#xdf;" horiz-adv-x="1191" d="M197 0h129v1042q0 195 79.5 281t221.5 86q98 0 160.5 -42t62.5 -130q0 -51 -23.5 -85t-58.5 -62.5t-76 -54t-75.5 -57.5t-58 -75t-23.5 -104q0 -82 31.5 -135.5t79.5 -91t103.5 -65.5t103.5 -59.5t80 -71.5t32 -102q0 -72 -61.5 -127t-196.5 -55q-47 0 -99.5 8.5 t-95.5 22.5l-6 -123q82 -16 192 -16q94 0 168 23.5t125 65.5t78 99t27 123q0 80 -32 132t-80 90t-103.5 65.5t-103.5 58.5t-79.5 70t-31.5 98q0 49 23.5 82t58 58.5t74.5 49t75 56t58.5 80t23.5 118.5q0 53 -21.5 100.5t-64.5 82t-106.5 55t-147.5 20.5q-92 0 -173 -25.5 t-140.5 -82.5t-94 -148.5t-34.5 -222.5v-1032z" />
<glyph unicode="&#xe0;" horiz-adv-x="1085" d="M109 225q0 -123 78.5 -182t197.5 -59q135 0 229.5 70.5t130.5 170.5l5 -2q-8 -45 -10.5 -103.5t-2.5 -119.5q70 -4 156 1t149 13v70q-45 4 -93 9t-85 11v603q0 70 -16.5 130t-55 104t-106.5 68.5t-168 24.5q-104 0 -191 -21.5t-159 -56.5l14 -116q68 45 153 67.5 t159 22.5q137 0 189 -66.5t52 -191.5v-90q-154 0 -270.5 -27t-196.5 -74t-119.5 -112.5t-39.5 -143.5zM240 252q0 37 20.5 78t74.5 74.5t150.5 56t249.5 22.5v-14q0 -70 -22.5 -137.5t-64.5 -121.5t-101.5 -87t-130.5 -33q-80 0 -128 43t-48 119zM305 1403l260 -209l66 72 l-246 227z" />
<glyph unicode="&#xe1;" horiz-adv-x="1085" d="M109 225q0 -123 78.5 -182t197.5 -59q135 0 229.5 70.5t130.5 170.5l5 -2q-8 -45 -10.5 -103.5t-2.5 -119.5q70 -4 156 1t149 13v70q-45 4 -93 9t-85 11v603q0 70 -16.5 130t-55 104t-106.5 68.5t-168 24.5q-104 0 -191 -21.5t-159 -56.5l14 -116q68 45 153 67.5 t159 22.5q137 0 189 -66.5t52 -191.5v-90q-154 0 -270.5 -27t-196.5 -74t-119.5 -112.5t-39.5 -143.5zM240 252q0 37 20.5 78t74.5 74.5t150.5 56t249.5 22.5v-14q0 -70 -22.5 -137.5t-64.5 -121.5t-101.5 -87t-130.5 -33q-80 0 -128 43t-48 119zM424 1266l63 -72l261 209 l-80 90z" />
<glyph unicode="&#xe2;" horiz-adv-x="1085" d="M109 225q0 -123 78.5 -182t197.5 -59q135 0 229.5 70.5t130.5 170.5l5 -2q-8 -45 -10.5 -103.5t-2.5 -119.5q70 -4 156 1t149 13v70q-45 4 -93 9t-85 11v603q0 70 -16.5 130t-55 104t-106.5 68.5t-168 24.5q-104 0 -191 -21.5t-159 -56.5l14 -116q68 45 153 67.5 t159 22.5q137 0 189 -66.5t52 -191.5v-90q-154 0 -270.5 -27t-196.5 -74t-119.5 -112.5t-39.5 -143.5zM240 252q0 37 20.5 78t74.5 74.5t150.5 56t249.5 22.5v-14q0 -70 -22.5 -137.5t-64.5 -121.5t-101.5 -87t-130.5 -33q-80 0 -128 43t-48 119zM256 1274l61 -72l195 146 l207 -146l69 78l-272 193z" />
<glyph unicode="&#xe3;" horiz-adv-x="1085" d="M109 225q0 -123 78.5 -182t197.5 -59q135 0 229.5 70.5t130.5 170.5l5 -2q-8 -45 -10.5 -103.5t-2.5 -119.5q70 -4 156 1t149 13v70q-45 4 -93 9t-85 11v603q0 70 -16.5 130t-55 104t-106.5 68.5t-168 24.5q-104 0 -191 -21.5t-159 -56.5l14 -116q68 45 153 67.5 t159 22.5q137 0 189 -66.5t52 -191.5v-90q-154 0 -270.5 -27t-196.5 -74t-119.5 -112.5t-39.5 -143.5zM180 1360l39 -88q29 31 61.5 49t75.5 18q41 0 72 -15t62.5 -32.5t68.5 -33t90 -15.5q57 0 106.5 24.5t78.5 55.5l-37 88q-29 -29 -63 -48.5t-77 -19.5q-39 0 -70.5 15.5 t-63 33t-68.5 33t-86 15.5q-53 0 -103.5 -22.5t-85.5 -57.5zM240 252q0 37 20.5 78t74.5 74.5t150.5 56t249.5 22.5v-14q0 -70 -22.5 -137.5t-64.5 -121.5t-101.5 -87t-130.5 -33q-80 0 -128 43t-48 119z" />
<glyph unicode="&#xe4;" horiz-adv-x="1085" d="M109 225q0 -123 78.5 -182t197.5 -59q135 0 229.5 70.5t130.5 170.5l5 -2q-8 -45 -10.5 -103.5t-2.5 -119.5q70 -4 156 1t149 13v70q-45 4 -93 9t-85 11v603q0 70 -16.5 130t-55 104t-106.5 68.5t-168 24.5q-104 0 -191 -21.5t-159 -56.5l14 -116q68 45 153 67.5 t159 22.5q137 0 189 -66.5t52 -191.5v-90q-154 0 -270.5 -27t-196.5 -74t-119.5 -112.5t-39.5 -143.5zM238 1348q0 -37 24.5 -62.5t63.5 -25.5q37 0 62.5 25.5t25.5 62.5q0 39 -26 63.5t-62 24.5q-39 0 -63.5 -25t-24.5 -63zM240 252q0 37 20.5 78t74.5 74.5t150.5 56 t249.5 22.5v-14q0 -70 -22.5 -137.5t-64.5 -121.5t-101.5 -87t-130.5 -33q-80 0 -128 43t-48 119zM614 1348q0 -37 26 -62.5t62 -25.5q37 0 63 25.5t26 62.5q0 39 -26 63.5t-63 24.5t-62.5 -25t-25.5 -63z" />
<glyph unicode="&#xe5;" horiz-adv-x="1085" d="M109 225q0 -123 78.5 -182t197.5 -59q135 0 229.5 70.5t130.5 170.5l5 -2q-8 -45 -10.5 -103.5t-2.5 -119.5q70 -4 156 1t149 13v70q-45 4 -93 9t-85 11v603q0 70 -16.5 130t-55 104t-106.5 68.5t-168 24.5q-104 0 -191 -21.5t-159 -56.5l14 -116q68 45 153 67.5 t159 22.5q137 0 189 -66.5t52 -191.5v-90q-154 0 -270.5 -27t-196.5 -74t-119.5 -112.5t-39.5 -143.5zM240 252q0 37 20.5 78t74.5 74.5t150.5 56t249.5 22.5v-14q0 -70 -22.5 -137.5t-64.5 -121.5t-101.5 -87t-130.5 -33q-80 0 -128 43t-48 119zM313 1350 q0 -92 61.5 -149.5t151.5 -57.5q43 0 82 16.5t68 45t45 66.5t16 79q0 88 -59.5 147t-151.5 59q-43 0 -81.5 -16t-67.5 -44t-46.5 -65.5t-17.5 -80.5zM408 1350q0 51 33.5 85.5t84.5 34.5q49 0 83 -34.5t34 -85.5q0 -49 -34 -85t-83 -36q-51 0 -84.5 35.5t-33.5 85.5z" />
<glyph unicode="&#xe6;" horiz-adv-x="1660" d="M109 225q0 -123 78.5 -182t195.5 -59q74 0 137.5 21.5t113.5 57t86 79.5t58 91h2q16 -51 49 -97t83.5 -79.5t120 -53t159.5 -19.5q96 0 178 15t150 44l-13 115q-55 -29 -135 -47.5t-162 -18.5q-176 0 -267 108.5t-81 356.5h692q2 23 2 39v29q0 82 -21.5 156.5t-69.5 131 t-121.5 89t-178.5 32.5q-117 0 -204 -52t-132 -128h-2q-35 94 -113.5 138t-195.5 44q-104 0 -191 -22.5t-159 -57.5l14 -116q68 45 153 67.5t159 22.5q135 0 188 -68.5t53 -189.5v-90q-154 0 -270.5 -27t-196.5 -74t-119.5 -112.5t-39.5 -143.5zM240 252q0 37 20.5 78 t74.5 74.5t150.5 56t249.5 22.5v-14q0 -70 -22.5 -137.5t-64.5 -121.5t-101.5 -87t-130.5 -33q-80 0 -128 43t-48 119zM870 657q23 129 98.5 204t188.5 75q125 0 194.5 -78t67.5 -201h-549z" />
<glyph unicode="&#xe7;" horiz-adv-x="907" d="M94 473q0 -147 38 -241.5t99.5 -148.5t140.5 -74.5t158 -20.5q98 0 178.5 19.5t131.5 39.5l-13 113q-53 -29 -125.5 -45.5t-144.5 -16.5q-98 0 -160.5 32t-99.5 87t-51.5 128t-14.5 155q0 96 21.5 175t64.5 136t107.5 88t150.5 31q68 0 130.5 -13.5t115.5 -35.5l15 114 q-117 35 -246 35q-123 0 -216 -40t-154.5 -112.5t-93.5 -175t-32 -229.5zM358 -428l56 -57q76 49 120 98t60 96t11 94.5t-25 92.5h-131q43 -82 27.5 -164t-118.5 -160z" />
<glyph unicode="&#xe8;" horiz-adv-x="1030" d="M94 506q0 -270 118 -396t347 -126q96 0 178 15t152 44l-12 115q-55 -29 -135 -47.5t-160 -18.5q-178 0 -269.5 108.5t-81.5 356.5h691q4 23 4 39v29q0 82 -22.5 156.5t-70 131t-121 89t-177.5 32.5t-185.5 -40t-138.5 -110.5t-87 -168t-30 -209.5zM240 657 q23 129 97.5 204t188.5 75q125 0 194.5 -78t67.5 -201h-548zM307 1403l260 -209l66 72l-246 227z" />
<glyph unicode="&#xe9;" horiz-adv-x="1030" d="M94 506q0 -270 118 -396t347 -126q96 0 178 15t152 44l-12 115q-55 -29 -135 -47.5t-160 -18.5q-178 0 -269.5 108.5t-81.5 356.5h691q4 23 4 39v29q0 82 -22.5 156.5t-70 131t-121 89t-177.5 32.5t-185.5 -40t-138.5 -110.5t-87 -168t-30 -209.5zM240 657 q23 129 97.5 204t188.5 75q125 0 194.5 -78t67.5 -201h-548zM430 1266l64 -72l260 209l-80 90z" />
<glyph unicode="&#xea;" horiz-adv-x="1030" d="M94 506q0 -270 118 -396t347 -126q96 0 178 15t152 44l-12 115q-55 -29 -135 -47.5t-160 -18.5q-178 0 -269.5 108.5t-81.5 356.5h691q4 23 4 39v29q0 82 -22.5 156.5t-70 131t-121 89t-177.5 32.5t-185.5 -40t-138.5 -110.5t-87 -168t-30 -209.5zM240 657 q23 129 97.5 204t188.5 75q125 0 194.5 -78t67.5 -201h-548zM274 1274l62 -72l194 146l207 -146l70 78l-272 193z" />
<glyph unicode="&#xeb;" horiz-adv-x="1030" d="M94 506q0 -270 118 -396t347 -126q96 0 178 15t152 44l-12 115q-55 -29 -135 -47.5t-160 -18.5q-178 0 -269.5 108.5t-81.5 356.5h691q4 23 4 39v29q0 82 -22.5 156.5t-70 131t-121 89t-177.5 32.5t-185.5 -40t-138.5 -110.5t-87 -168t-30 -209.5zM240 657 q23 129 97.5 204t188.5 75q125 0 194.5 -78t67.5 -201h-548zM256 1348q0 -37 24.5 -62.5t63.5 -25.5q37 0 62.5 25.5t25.5 62.5q0 39 -25.5 63.5t-62.5 24.5q-39 0 -63.5 -25t-24.5 -63zM633 1348q0 -37 25.5 -62.5t62.5 -25.5t62.5 25.5t25.5 62.5q0 39 -25.5 63.5 t-62.5 24.5t-62.5 -25t-25.5 -63z" />
<glyph unicode="&#xec;" horiz-adv-x="565" d="M63 934q45 -4 93.5 -9t85.5 -12v-913h127v1018q-72 4 -158 -1t-148 -13v-70zM78 1403l262 -209l63 72l-245 227z" />
<glyph unicode="&#xed;" horiz-adv-x="565" d="M63 934q45 -4 93.5 -9t85.5 -12v-913h127v1018q-72 4 -158 -1t-148 -13v-70zM137 1266l64 -72l262 209l-80 90z" />
<glyph unicode="&#xee;" horiz-adv-x="565" d="M23 1274l61 -72l197 146l204 -146l70 78l-272 193zM63 934q45 -4 93.5 -9t85.5 -12v-913h127v1018q-72 4 -158 -1t-148 -13v-70z" />
<glyph unicode="&#xef;" horiz-adv-x="565" d="M6 1348q0 -37 25.5 -62.5t62.5 -25.5t62.5 25.5t25.5 62.5q0 39 -25.5 63.5t-62.5 24.5t-62.5 -25t-25.5 -63zM63 934q45 -4 93.5 -9t85.5 -12v-913h127v1018q-72 4 -158 -1t-148 -13v-70zM385 1348q0 -37 25.5 -62.5t62.5 -25.5t62.5 25.5t25.5 62.5q0 39 -25.5 63.5 t-62.5 24.5t-62.5 -25t-25.5 -63z" />
<glyph unicode="&#xf1;" horiz-adv-x="1228" d="M63 934q45 -4 93.5 -9t85.5 -12v-913h127v487q0 96 24.5 177t67.5 140.5t103.5 93.5t133.5 34q119 0 163 -72t44 -198v-662h127v709q0 68 -15.5 128t-50 104t-93 69.5t-146.5 25.5q-135 0 -230.5 -69.5t-140.5 -186.5l-2 2q4 25 7.5 54.5t5.5 61.5t3 62.5t1 57.5 q-37 2 -78 1t-82 -3t-79 -5t-69 -7v-70zM309 1360l39 -88q29 31 61.5 49t75.5 18q41 0 72 -15t62.5 -32.5t68.5 -33t90 -15.5q57 0 106.5 24.5t78.5 55.5l-37 88q-29 -29 -63 -48.5t-77 -19.5q-39 0 -70.5 15.5t-63 33t-68.5 33t-86 15.5q-53 0 -103.5 -22.5t-85.5 -57.5z " />
<glyph unicode="&#xf2;" horiz-adv-x="1105" d="M90 506q0 -268 120 -395t322 -127q113 0 202 43t150.5 116.5t94.5 171.5t33 209q0 141 -36 239.5t-97.5 158t-142.5 86t-169 26.5q-115 0 -204 -43t-149 -114.5t-92 -168t-32 -202.5zM225 516q0 106 28 184t74 129.5t104 76t122 24.5q162 0 244 -109.5t82 -302.5 q0 -113 -27 -193.5t-72 -133t-103.5 -77t-121.5 -24.5q-160 0 -245 110.5t-85 315.5zM346 1403l260 -209l66 72l-246 227z" />
<glyph unicode="&#xf3;" horiz-adv-x="1105" d="M90 506q0 -268 120 -395t322 -127q113 0 202 43t150.5 116.5t94.5 171.5t33 209q0 141 -36 239.5t-97.5 158t-142.5 86t-169 26.5q-115 0 -204 -43t-149 -114.5t-92 -168t-32 -202.5zM225 516q0 106 28 184t74 129.5t104 76t122 24.5q162 0 244 -109.5t82 -302.5 q0 -113 -27 -193.5t-72 -133t-103.5 -77t-121.5 -24.5q-160 0 -245 110.5t-85 315.5zM461 1266l63 -72l260 209l-79 90z" />
<glyph unicode="&#xf4;" horiz-adv-x="1105" d="M90 506q0 -268 120 -395t322 -127q113 0 202 43t150.5 116.5t94.5 171.5t33 209q0 141 -36 239.5t-97.5 158t-142.5 86t-169 26.5q-115 0 -204 -43t-149 -114.5t-92 -168t-32 -202.5zM225 516q0 106 28 184t74 129.5t104 76t122 24.5q162 0 244 -109.5t82 -302.5 q0 -113 -27 -193.5t-72 -133t-103.5 -77t-121.5 -24.5q-160 0 -245 110.5t-85 315.5zM287 1274l61 -72l195 146l207 -146l69 78l-272 193z" />
<glyph unicode="&#xf5;" horiz-adv-x="1105" d="M90 506q0 -268 120 -395t322 -127q113 0 202 43t150.5 116.5t94.5 171.5t33 209q0 141 -36 239.5t-97.5 158t-142.5 86t-169 26.5q-115 0 -204 -43t-149 -114.5t-92 -168t-32 -202.5zM225 516q0 106 28 184t74 129.5t104 76t122 24.5q162 0 244 -109.5t82 -302.5 q0 -113 -27 -193.5t-72 -133t-103.5 -77t-121.5 -24.5q-160 0 -245 110.5t-85 315.5zM225 1360l39 -88q29 31 61.5 49t75.5 18q41 0 72 -15t62.5 -32.5t68.5 -33t90 -15.5q57 0 106.5 24.5t78.5 55.5l-37 88q-29 -29 -63 -48.5t-77 -19.5q-39 0 -70.5 15.5t-63 33t-68.5 33 t-86 15.5q-53 0 -103.5 -22.5t-85.5 -57.5z" />
<glyph unicode="&#xf6;" horiz-adv-x="1105" d="M90 506q0 -268 120 -395t322 -127q113 0 202 43t150.5 116.5t94.5 171.5t33 209q0 141 -36 239.5t-97.5 158t-142.5 86t-169 26.5q-115 0 -204 -43t-149 -114.5t-92 -168t-32 -202.5zM225 516q0 106 28 184t74 129.5t104 76t122 24.5q162 0 244 -109.5t82 -302.5 q0 -113 -27 -193.5t-72 -133t-103.5 -77t-121.5 -24.5q-160 0 -245 110.5t-85 315.5zM270 1348q0 -37 24.5 -62.5t63.5 -25.5q37 0 62.5 25.5t25.5 62.5q0 39 -25.5 63.5t-62.5 24.5q-39 0 -63.5 -25t-24.5 -63zM647 1348q0 -37 25.5 -62.5t62.5 -25.5t62.5 25.5t25.5 62.5 q0 39 -25.5 63.5t-62.5 24.5t-62.5 -25t-25.5 -63z" />
<glyph unicode="&#xf7;" horiz-adv-x="1177" d="M92 473h991v111h-991v-111zM492 113q0 -41 27.5 -69t68.5 -28t69.5 28t28.5 69t-28.5 69.5t-69.5 28.5t-68.5 -28.5t-27.5 -69.5zM492 940q0 -41 27.5 -69.5t68.5 -28.5t69.5 28.5t28.5 69.5t-28.5 69.5t-69.5 28.5t-68.5 -28.5t-27.5 -69.5z" />
<glyph unicode="&#xf8;" horiz-adv-x="1103" d="M82 506q0 -150 48 -273.5t157 -191.5l-84 -219l96 -33l82 215q61 -20 145 -20q111 0 199 42t149.5 115.5t94 171.5t32.5 211q0 100 -18 177t-51 134.5t-77 96.5t-95 63l71 189l-96 35l-73 -193q-25 4 -51.5 6t-53.5 2q-115 0 -203 -42t-148.5 -114.5t-92 -169 t-31.5 -202.5zM209 516q0 115 29.5 193.5t76.5 128t104.5 72t115.5 22.5q23 0 45.5 -2t42.5 -6l-289 -760q-61 51 -93 143t-32 209zM422 111l295 774q78 -47 116.5 -139.5t38.5 -227.5q0 -113 -26.5 -193.5t-71.5 -133t-103.5 -78t-119.5 -25.5q-78 0 -129 23z" />
<glyph unicode="&#xf9;" horiz-adv-x="1247" d="M55 934q45 -4 93.5 -9t84.5 -12v-604q0 -68 15.5 -128t50.5 -104t94.5 -69.5t147.5 -25.5q135 0 230 69.5t138 186.5l4 -2q-10 -49 -14 -116t-4 -120q37 -2 78 -1t82 3t79.5 5t69.5 7v70q-45 4 -93 9t-85 11v914h-129v-488q0 -96 -24.5 -177t-67.5 -140t-103.5 -93 t-132.5 -34q-121 0 -164 71.5t-43 198.5v662q-72 4 -157.5 -1t-149.5 -13v-70zM377 1403l260 -209l65 72l-245 227z" />
<glyph unicode="&#xfa;" horiz-adv-x="1247" d="M55 934q45 -4 93.5 -9t84.5 -12v-604q0 -68 15.5 -128t50.5 -104t94.5 -69.5t147.5 -25.5q135 0 230 69.5t138 186.5l4 -2q-10 -49 -14 -116t-4 -120q37 -2 78 -1t82 3t79.5 5t69.5 7v70q-45 4 -93 9t-85 11v914h-129v-488q0 -96 -24.5 -177t-67.5 -140t-103.5 -93 t-132.5 -34q-121 0 -164 71.5t-43 198.5v662q-72 4 -157.5 -1t-149.5 -13v-70zM532 1266l64 -72l260 209l-80 90z" />
<glyph unicode="&#xfb;" horiz-adv-x="1247" d="M55 934q45 -4 93.5 -9t84.5 -12v-604q0 -68 15.5 -128t50.5 -104t94.5 -69.5t147.5 -25.5q135 0 230 69.5t138 186.5l4 -2q-10 -49 -14 -116t-4 -120q37 -2 78 -1t82 3t79.5 5t69.5 7v70q-45 4 -93 9t-85 11v914h-129v-488q0 -96 -24.5 -177t-67.5 -140t-103.5 -93 t-132.5 -34q-121 0 -164 71.5t-43 198.5v662q-72 4 -157.5 -1t-149.5 -13v-70zM360 1274l62 -72l194 146l207 -146l70 78l-272 193z" />
<glyph unicode="&#xfc;" horiz-adv-x="1247" d="M55 934q45 -4 93.5 -9t84.5 -12v-604q0 -68 15.5 -128t50.5 -104t94.5 -69.5t147.5 -25.5q135 0 230 69.5t138 186.5l4 -2q-10 -49 -14 -116t-4 -120q37 -2 78 -1t82 3t79.5 5t69.5 7v70q-45 4 -93 9t-85 11v914h-129v-488q0 -96 -24.5 -177t-67.5 -140t-103.5 -93 t-132.5 -34q-121 0 -164 71.5t-43 198.5v662q-72 4 -157.5 -1t-149.5 -13v-70zM344 1348q0 -37 24.5 -62.5t63.5 -25.5q37 0 62.5 25.5t25.5 62.5q0 39 -25.5 63.5t-62.5 24.5q-39 0 -63.5 -25t-24.5 -63zM721 1348q0 -37 25.5 -62.5t62.5 -25.5t62.5 25.5t25.5 62.5 q0 39 -25.5 63.5t-62.5 24.5t-62.5 -25t-25.5 -63z" />
<glyph unicode="&#xff;" horiz-adv-x="950" d="M-51 -518q29 -4 63.5 -7t61.5 -3q82 0 142 21.5t108.5 70.5t89.5 129t86 196l426 1129h-142l-196 -553q-33 -92 -61.5 -177t-41.5 -132h-2q-16 55 -33.5 109t-43.5 126l-230 627h-151l393 -1018l-49 -127q-33 -86 -63 -141.5t-61.5 -88t-69.5 -46t-87 -13.5 q-63 0 -125 19zM195 1348q0 -37 24.5 -62.5t63.5 -25.5q37 0 62.5 25.5t25.5 62.5q0 39 -26 63.5t-62 24.5q-39 0 -63.5 -25t-24.5 -63zM571 1348q0 -37 26 -62.5t62 -25.5q37 0 63 25.5t26 62.5q0 39 -26 63.5t-63 24.5t-62.5 -25t-25.5 -63z" />
<glyph unicode="&#x152;" horiz-adv-x="1722" d="M98 682q0 -150 34 -276.5t106.5 -219t186.5 -144.5t273 -52q74 0 145.5 5t153.5 5h564v109h-551v553h524v104h-524v510h551v106h-564q-59 0 -124.5 4.5t-135.5 4.5q-133 0 -248.5 -48.5t-202.5 -138.5t-137.5 -222t-50.5 -300zM238 698q0 139 38.5 248t106.5 184.5 t156 114.5t186 39q78 0 156 -12v-1155q-33 -8 -74 -11.5t-78 -3.5q-139 0 -233.5 48.5t-151.5 130t-81.5 190.5t-24.5 227z" />
<glyph unicode="&#x153;" horiz-adv-x="1804" d="M90 506q0 -106 24.5 -200.5t78 -166t137.5 -113.5t205 -42q147 0 242 66.5t149 168.5q45 -111 141 -173t266 -62q96 0 178 15t152 44l-8 115q-57 -29 -139 -47.5t-162 -18.5q-180 0 -269.5 108.5t-80.5 356.5h692q2 23 3 40.5t1 27.5q0 82 -22.5 156.5t-69.5 131t-121 89 t-178 32.5q-129 0 -220.5 -61.5t-144.5 -159.5q-53 117 -154.5 169t-222.5 52q-115 0 -204 -42t-149 -114.5t-92 -169t-32 -202.5zM221 516q0 117 30 196t77 128t105.5 70.5t115.5 21.5q166 0 248 -107.5t82 -306.5q0 -113 -27 -194.5t-72 -134t-103.5 -77t-121.5 -24.5 q-90 0 -152.5 34t-103.5 91t-59.5 135t-18.5 168zM1012 657q23 125 98.5 202t189.5 77q125 0 195 -78t66 -201h-549z" />
<glyph unicode="&#x178;" horiz-adv-x="1062" d="M29 1382l432 -878v-504h131v504l442 878h-139l-240 -493q-33 -68 -64.5 -136.5t-58.5 -134.5h-2q-25 61 -52 124t-58 126l-246 514h-145zM250 1618q0 -37 24.5 -62.5t63.5 -25.5q37 0 62.5 25.5t25.5 62.5q0 39 -25.5 63.5t-62.5 24.5q-39 0 -63.5 -24.5t-24.5 -63.5z M627 1618q0 -37 25.5 -62.5t62.5 -25.5t62.5 25.5t25.5 62.5q0 39 -25.5 63.5t-62.5 24.5t-62.5 -24.5t-25.5 -63.5z" />
<glyph unicode="&#x2c6;" horiz-adv-x="897" d="M182 1274l62 -72l194 146l207 -146l70 78l-273 193z" />
<glyph unicode="&#x2dc;" horiz-adv-x="1056" d="M221 1360l39 -88q29 31 61.5 49t75.5 18q41 0 72 -15t62.5 -32.5t68.5 -33t90 -15.5q57 0 106 24.5t78 55.5l-36 88q-29 -29 -63 -48.5t-77 -19.5q-39 0 -70.5 15.5t-63.5 33t-68.5 33t-85.5 15.5q-53 0 -103.5 -22.5t-85.5 -57.5z" />
<glyph unicode="&#x2000;" horiz-adv-x="901" />
<glyph unicode="&#x2001;" horiz-adv-x="1802" />
<glyph unicode="&#x2002;" horiz-adv-x="901" />
<glyph unicode="&#x2003;" horiz-adv-x="1802" />
<glyph unicode="&#x2004;" horiz-adv-x="600" />
<glyph unicode="&#x2005;" horiz-adv-x="450" />
<glyph unicode="&#x2006;" horiz-adv-x="300" />
<glyph unicode="&#x2007;" horiz-adv-x="300" />
<glyph unicode="&#x2008;" horiz-adv-x="225" />
<glyph unicode="&#x2009;" horiz-adv-x="360" />
<glyph unicode="&#x200a;" horiz-adv-x="100" />
<glyph unicode="&#x2010;" horiz-adv-x="669" d="M100 457h469v104h-469v-104z" />
<glyph unicode="&#x2011;" horiz-adv-x="669" d="M100 457h469v104h-469v-104z" />
<glyph unicode="&#x2012;" horiz-adv-x="669" d="M100 457h469v104h-469v-104z" />
<glyph unicode="&#x2013;" horiz-adv-x="1024" d="M0 537h1024v110h-1024v-110z" />
<glyph unicode="&#x2014;" horiz-adv-x="2048" d="M0 537h2048v110h-2048v-110z" />
<glyph unicode="&#x2018;" horiz-adv-x="464" d="M121 1195q-4 -65 24.5 -101.5t73.5 -36.5q25 0 44.5 13t29.5 33.5t9 45.5t-17 47q-12 18 -17.5 45t3 61.5t33 77.5t71.5 95l-58 53q-102 -98 -147 -183t-49 -150z" />
<glyph unicode="&#x2019;" horiz-adv-x="464" d="M86 1098l59 -51q100 96 145.5 182t49.5 149.5t-23.5 100.5t-72.5 37q-27 0 -46.5 -13.5t-29.5 -33t-9 -44t17 -47.5q14 -18 19.5 -44.5t-4 -62.5t-34 -79t-71.5 -94z" />
<glyph unicode="&#x201a;" horiz-adv-x="464" d="M86 -238l59 -51q100 98 145.5 183.5t49.5 148.5t-23.5 100t-72.5 37q-27 0 -46.5 -13t-29.5 -32.5t-9 -44t17 -47.5q14 -18 19.5 -45t-4 -62.5t-34 -78.5t-71.5 -95z" />
<glyph unicode="&#x201c;" horiz-adv-x="813" d="M121 1195q-4 -65 24.5 -101.5t73.5 -36.5q25 0 44.5 13t29.5 33.5t9 45.5t-17 47q-12 18 -17.5 45t3 61.5t33 78t71.5 94.5l-58 53q-102 -98 -147 -183t-49 -150zM469 1195q-4 -65 23.5 -101.5t72.5 -36.5q27 0 46.5 13t29.5 33.5t8 45.5t-18 47q-12 18 -17.5 45t4 61.5 t34 78t71.5 94.5l-59 53q-102 -98 -146.5 -183t-48.5 -150z" />
<glyph unicode="&#x201d;" horiz-adv-x="813" d="M86 1098l59 -51q100 96 145.5 182t49.5 149.5t-23.5 100.5t-72.5 37q-27 0 -46.5 -13.5t-29.5 -33t-9 -44t17 -47.5q14 -18 19.5 -44.5t-4 -62.5t-34 -79t-71.5 -94zM434 1098l58 -51q102 96 147 182t49 149.5t-24.5 100.5t-73.5 37q-25 0 -45.5 -13.5t-30.5 -33t-8 -44 t18 -47.5q12 -18 17.5 -44.5t-3 -62.5t-33 -79t-71.5 -94z" />
<glyph unicode="&#x201e;" horiz-adv-x="813" d="M86 -238l59 -51q100 98 145.5 183.5t49.5 148.5t-23.5 100t-72.5 37q-27 0 -46.5 -13t-29.5 -32.5t-9 -44t17 -47.5q14 -18 19.5 -45t-4 -62.5t-34 -78.5t-71.5 -95zM434 -238l58 -51q102 98 147 183.5t49 148.5t-24.5 100t-73.5 37q-25 0 -45.5 -13t-30.5 -32.5t-8 -44 t18 -47.5q12 -18 17.5 -45t-3 -62.5t-33 -78.5t-71.5 -95z" />
<glyph unicode="&#x2022;" horiz-adv-x="884" d="M219 594q0 -43 16.5 -81t44 -65.5t65.5 -44t81 -16.5t81 16.5t66.5 44t45 65.5t16.5 81t-16.5 81t-45 65.5t-66.5 44t-81 16.5t-81 -16.5t-65.5 -44t-44 -65.5t-16.5 -81z" />
<glyph unicode="&#x2026;" horiz-adv-x="1282" d="M115 84q0 -41 28.5 -70.5t69.5 -29.5t69.5 29.5t28.5 70.5t-28.5 69.5t-69.5 28.5t-69.5 -28.5t-28.5 -69.5zM530 84q0 -41 29 -70.5t70 -29.5t69.5 29.5t28.5 70.5t-28.5 69.5t-69.5 28.5t-70 -28.5t-29 -69.5zM946 84q0 -41 29 -70.5t69 -29.5q41 0 70 29.5t29 70.5 t-29 69.5t-70 28.5t-69.5 -28.5t-28.5 -69.5z" />
<glyph unicode="&#x202f;" horiz-adv-x="360" />
<glyph unicode="&#x2039;" horiz-adv-x="643" d="M129 502l246 -346l96 65l-211 281l213 286l-92 64z" />
<glyph unicode="&#x203a;" horiz-adv-x="643" d="M168 219l92 -63l254 350l-248 346l-94 -66l211 -280z" />
<glyph unicode="&#x205f;" horiz-adv-x="450" />
<glyph unicode="&#x20ac;" horiz-adv-x="1126" d="M29 485h198q29 -246 148 -373.5t350 -127.5q80 0 162.5 12t154.5 39l-22 106q-49 -18 -125 -31.5t-137 -13.5q-186 0 -275.5 98.5t-113.5 290.5h417v95h-426q-2 25 -3 50t-1 54q0 27 1 52.5t3 49.5h426v95h-417q31 221 131 316t252 95q63 0 131.5 -11t113.5 -24l25 113 q-51 12 -116.5 20.5t-125.5 8.5q-111 0 -202 -29t-161.5 -91t-117.5 -160.5t-68 -237.5h-202v-95h192q-2 -29 -3 -60.5t-1 -63.5v-44q0 -18 2 -38h-190v-95z" />
<glyph unicode="&#x2122;" horiz-adv-x="1443" d="M113 1300h159v-493h109v493h160v82h-428v-82zM592 807h98l58 383l6 76l24 -97l109 -362h119l110 358l29 101l14 -119l51 -340h107l-86 575h-141l-117 -370l-19 -92l-24 102l-107 360h-145z" />
<glyph unicode="&#xe000;" horiz-adv-x="1013" d="M0 0v1014h1014v-1014h-1014z" />
<glyph unicode="&#xfb01;" horiz-adv-x="1200" d="M12 915h234v-915h129v915h502v-915h127v1018h-629v74q0 145 74.5 226t242.5 81q53 0 121 -11.5t125 -29.5l27 110q-57 16 -126 26.5t-139 10.5q-233 0 -343.5 -113.5t-110.5 -322.5v-51h-234v-103z" />
<glyph unicode="&#xfb02;" horiz-adv-x="1200" d="M12 915h234v-915h129v915h311v103h-311v110q0 145 72.5 209t228.5 64q49 0 98 -3t103 -14v-1384h127v1479q-74 10 -155 18t-159 8q-227 0 -335.5 -94t-108.5 -262v-131h-234v-103z" />
</font>
</defs>
</svg>
